<?xml version="1.0" standalone="no"?>
<!DOCTYPE svg PUBLIC "-//W3C//DTD SVG 1.1//EN" "http://www.w3.org/Graphics/SVG/1.1/DTD/svg11.dtd">
<svg xmlns="http://www.w3.org/2000/svg">
<metadata>Iconscout</metadata>
<defs>
<font id="unicons" horiz-adv-x="1000" >
<font-face font-family="unicons" font-weight="400" font-stretch="normal" units-per-em="1000" ascent="850" descent="-150" />
<missing-glyph horiz-adv-x="1000" />
<glyph glyph-name="abacus" unicode="&#xe800;" d="M875 767a42 42 0 0 1-42-42v-125h-166v42a42 42 0 0 1-84 0v-42h-83v42a42 42 0 0 1-83 0v-42h-84v42a42 42 0 0 1-83 0v-42h-83v125a42 42 0 0 1-84 0v-667a125 125 0 0 1 125-125h584a125 125 0 0 1 125 125v667a42 42 0 0 1-42 42z m-42-709a42 42 0 0 0-41-41h-584a42 42 0 0 0-41 41v125h83v-41a42 42 0 0 1 83 0v41h84v-41a42 42 0 0 1 83 0v41h167v-41a42 42 0 0 1 83 0v41h83z m0 209h-83v41a42 42 0 0 1-83 0v-41h-167v41a42 42 0 0 1-83 0v-41h-84v41a42 42 0 0 1-83 0v-41h-83v250h83v-42a42 42 0 0 1 83 0v42h84v-42a42 42 0 0 1 83 0v42h83v-42a42 42 0 0 1 84 0v42h166z" horiz-adv-x="1000" />

<glyph glyph-name="accessible-icon-alt" unicode="&#xe801;" d="M667 558a83 83 0 1 1-84 84 83 83 0 0 1 84-84z m-138-475a167 167 0 1 0-152 267 42 42 0 1 1-9 83 250 250 0 0 1 28-500 250 250 0 0 1 200 100 42 42 0 0 1-67 50z m284-66h-42v208a42 42 0 0 1-42 42h-190l70 194v13a46 46 0 0 1 0 7 44 44 0 0 1 0 8 58 58 0 0 1-4 7 30 30 0 0 1-4 6 27 27 0 0 1-6 6s0 2-4 3l-186 108h-5a44 44 0 0 1-8 2h-17a33 33 0 0 1-8-3h-5l-112-65a42 42 0 0 1 20-78 42 42 0 0 1 22 5l93 55 135-79-79-217a37 37 0 0 1 0-6 24 24 0 0 1 0-8 125 125 0 0 1 3-16l5-6a24 24 0 0 1 4-7 28 28 0 0 1 6-3 51 51 0 0 1 8-5 42 42 0 0 1 14-3h209v-208a42 42 0 0 1 41-42h84a42 42 0 0 1 0 83z" horiz-adv-x="1000" />

<glyph glyph-name="adjust-alt" unicode="&#xe802;" d="M868 545a8 8 0 0 1 0 3 417 417 0 0 1-141 152 412 412 0 0 1-227 67 42 42 0 0 1-42-42v-750a42 42 0 0 1 42-42h12a417 417 0 0 1 356 612z m-326 136a333 333 0 0 0 103-31l-103-180z m0-378l173 301a329 329 0 0 0 66-76l-239-415z m48-273l233 403a348 348 0 0 0 10-83 331 331 0 0 0-243-320z" horiz-adv-x="1000" />

<glyph glyph-name="adjust-circle" unicode="&#xe803;" d="M708 558a323 323 0 1 1-416-416 323 323 0 1 1 416 416z m-66-66a255 255 0 0 0 4-48 247 247 0 0 0-6-56l-102 101a247 247 0 0 0 56 7 255 255 0 0 0 47-5z m-39-184a250 250 0 0 0-61-60l-145 144a250 250 0 0 0 61 61z m-334-60a240 240 0 1 0 334 333h-11a323 323 0 0 1-321-325c0-3 0-7 0-10z m88-38a255 255 0 0 0-5 48 247 247 0 0 0 7 56l101-101a247 247 0 0 0-56-7 255 255 0 0 0-45 3z m237-193a240 240 0 0 0-198 104h10a323 323 0 0 1 323 323v10a240 240 0 0 0-135-437z" horiz-adv-x="1000" />

<glyph glyph-name="adjust-half" unicode="&#xe804;" d="M868 545a421 421 0 0 1-143 155 417 417 0 1 1-225-767h12a417 417 0 0 1 356 612z m-410-525a333 333 0 0 0 0 660z m84 660a336 336 0 0 0 103-30l-103-180z m0-375l173 299a339 339 0 0 0 66-76l-239-415z m48-274l232 402a340 340 0 0 0 11-83 333 333 0 0 0-243-321z" horiz-adv-x="1000" />

<glyph glyph-name="adjust" unicode="&#xe805;" d="M500 767a417 417 0 1 1 417-417 417 417 0 0 1-417 417z m-42-747a333 333 0 0 0 0 660z m84 0v660a333 333 0 0 0 0-660z" horiz-adv-x="1000" />

<glyph glyph-name="airplay" unicode="&#xe806;" d="M535 290a42 42 0 0 1-70 0l-166-250a42 42 0 0 1 0-42 42 42 0 0 1 34-23h334a42 42 0 0 1 36 22 42 42 0 0 1-2 42z m-124-232l89 134 89-134z m381 667h-584a125 125 0 0 1-125-125v-375a125 125 0 0 1 125-125h36a42 42 0 1 1 0 83h-36a42 42 0 0 0-41 42v375a42 42 0 0 0 41 42h584a42 42 0 0 0 41-42v-375a42 42 0 0 0-41-42h-36a42 42 0 0 1 0-83h36a125 125 0 0 1 125 125v375a125 125 0 0 1-125 125z" horiz-adv-x="1000" />

<glyph glyph-name="align-alt" unicode="&#xe807;" d="M417 392h-292a42 42 0 0 1 0-84h292a42 42 0 0 1 0 84z m0-334h-292a42 42 0 0 1 0-83h292a42 42 0 0 1 0 83z m166 584h292a42 42 0 0 1 0 83h-292a42 42 0 0 1 0-83z m-166-84h-292a42 42 0 0 1 0-83h292a42 42 0 0 1 0 83z m0-333h-292a42 42 0 0 1 0-83h292a42 42 0 0 1 0 83z m0 500h-125a42 42 0 0 1 0-83h125a42 42 0 0 1 0 83z m458-167h-292a42 42 0 0 1 0-83h292a42 42 0 0 1 0 83z m0-166h-292a42 42 0 0 1 0-84h292a42 42 0 0 1 0 84z m-167-334h-125a42 42 0 0 1 0-83h125a42 42 0 0 1 0 83z m167 167h-292a42 42 0 0 1 0-83h292a42 42 0 0 1 0 83z" horiz-adv-x="1000" />

<glyph glyph-name="align-center-alt" unicode="&#xe808;" d="M208 517h584a42 42 0 0 1 0 83h-584a42 42 0 0 1 0-83z m667-125h-750a42 42 0 0 1 0-84h750a42 42 0 0 1 0 84z m-83-209h-584a42 42 0 0 1 0-83h584a42 42 0 0 1 0 83z" horiz-adv-x="1000" />

<glyph glyph-name="align-center-h" unicode="&#xe809;" d="M913 366a42 42 0 0 1-8 14l-105 104a42 42 0 0 1-59-59l34-33h-108a42 42 0 0 1 0-84h108l-34-33a42 42 0 0 1 0-59 42 42 0 0 1 59 0l105 104a42 42 0 0 1 8 14 42 42 0 0 1 0 32z m-580 26h-108l34 33a42 42 0 0 1-59 59l-105-104a42 42 0 0 1-8-14 42 42 0 0 1 0-32 42 42 0 0 1 8-14l105-104a42 42 0 0 1 59 0 42 42 0 0 1 0 59l-34 33h108a42 42 0 0 1 0 84z m167 166a42 42 0 0 1-42-41v-334a42 42 0 0 1 84 0v334a42 42 0 0 1-42 41z" horiz-adv-x="1000" />

<glyph glyph-name="align-center-justify" unicode="&#xe80a;" d="M875 225h-750a42 42 0 0 1 0-83h750a42 42 0 0 1 0 83z m-750 417h750a42 42 0 0 1 0 83h-750a42 42 0 0 1 0-83z m583-584h-416a42 42 0 0 1 0-83h416a42 42 0 0 1 0 83z m167 500h-750a42 42 0 0 1 0-83h750a42 42 0 0 1 0 83z m0-166h-750a42 42 0 0 1 0-84h750a42 42 0 0 1 0 84z" horiz-adv-x="1000" />

<glyph glyph-name="align-center-v" unicode="&#xe80b;" d="M425 591l33 34v-108a42 42 0 0 1 84 0v108l33-34a42 42 0 0 1 59 0 42 42 0 0 1 0 59l-104 105a42 42 0 0 1-14 8 42 42 0 0 1-32 0 42 42 0 0 1-14-8l-104-105a42 42 0 0 1 59-59z m242-199h-334a42 42 0 0 1 0-84h334a42 42 0 0 1 0 84z m-92-283l-33-34v108a42 42 0 0 1-84 0v-108l-33 34a42 42 0 0 1-59-59l104-105a42 42 0 0 1 14-8 39 39 0 0 1 32 0 42 42 0 0 1 14 8l104 105a42 42 0 0 1-59 59z" horiz-adv-x="1000" />

<glyph glyph-name="align-center" unicode="&#xe80c;" d="M125 558h750a42 42 0 0 1 0 84h-750a42 42 0 0 1 0-84z m167-83a42 42 0 0 1 0-83h416a42 42 0 0 1 0 83z m583-167h-750a42 42 0 0 1 0-83h750a42 42 0 0 1 0 83z m-167-166h-416a42 42 0 0 1 0-84h416a42 42 0 0 1 0 84z" horiz-adv-x="1000" />

<glyph glyph-name="align-justify" unicode="&#xe80d;" d="M125 558h750a42 42 0 0 1 0 84h-750a42 42 0 0 1 0-84z m750-416h-750a42 42 0 0 1 0-84h750a42 42 0 0 1 0 84z m0 166h-750a42 42 0 0 1 0-83h750a42 42 0 0 1 0 83z m0 167h-750a42 42 0 0 1 0-83h750a42 42 0 0 1 0 83z" horiz-adv-x="1000" />

<glyph glyph-name="align-left-justify" unicode="&#xe80e;" d="M125 642h750a42 42 0 0 1 0 83h-750a42 42 0 0 1 0-83z m500-584h-500a42 42 0 0 1 0-83h500a42 42 0 0 1 0 83z m250 334h-750a42 42 0 0 1 0-84h750a42 42 0 0 1 0 84z m0 166h-750a42 42 0 0 1 0-83h750a42 42 0 0 1 0 83z m0-333h-750a42 42 0 0 1 0-83h750a42 42 0 0 1 0 83z" horiz-adv-x="1000" />

<glyph glyph-name="align-left" unicode="&#xe80f;" d="M125 558h750a42 42 0 0 1 0 84h-750a42 42 0 0 1 0-84z m0-166h583a42 42 0 0 1 0 83h-583a42 42 0 0 1 0-83z m750-84h-750a42 42 0 0 1 0-83h750a42 42 0 0 1 0 83z m-167-166h-583a42 42 0 0 1 0-84h583a42 42 0 0 1 0 84z" horiz-adv-x="1000" />

<glyph glyph-name="align-letter-right" unicode="&#xe810;" d="M417 683h458a42 42 0 0 1 0 84h-458a42 42 0 0 1 0-84z m458-666h-750a42 42 0 0 1 0-84h750a42 42 0 0 1 0 84z m0 583h-750a42 42 0 0 1 0-83h750a42 42 0 0 1 0 83z m0-417h-417a42 42 0 0 1 0-83h417a42 42 0 0 1 0 83z m0 250h-750a42 42 0 0 1 0-83h750a42 42 0 0 1 0 83z" horiz-adv-x="1000" />

<glyph glyph-name="align-right-justify" unicode="&#xe811;" d="M125 642h750a42 42 0 0 1 0 83h-750a42 42 0 0 1 0-83z m750-584h-417a42 42 0 0 1 0-83h417a42 42 0 0 1 0 83z m0 334h-750a42 42 0 0 1 0-84h750a42 42 0 0 1 0 84z m0-167h-750a42 42 0 0 1 0-83h750a42 42 0 0 1 0 83z m0 333h-750a42 42 0 0 1 0-83h750a42 42 0 0 1 0 83z" horiz-adv-x="1000" />

<glyph glyph-name="align-right" unicode="&#xe812;" d="M125 558h750a42 42 0 0 1 0 84h-750a42 42 0 0 1 0-84z m750-416h-583a42 42 0 0 1 0-84h583a42 42 0 0 1 0 84z m0 333h-583a42 42 0 0 1 0-83h583a42 42 0 0 1 0 83z m0-167h-750a42 42 0 0 1 0-83h750a42 42 0 0 1 0 83z" horiz-adv-x="1000" />

<glyph glyph-name="align" unicode="&#xe813;" d="M125 225h417a42 42 0 0 1 0 83h-417a42 42 0 0 1 0-83z m0 167h417a42 42 0 0 1 0 83h-417a42 42 0 0 1 0-83z m0 166h750a42 42 0 0 1 0 84h-750a42 42 0 0 1 0-84z m750-416h-750a42 42 0 0 1 0-84h750a42 42 0 0 1 0 84z m-57 309a42 42 0 1 1-53-64l45-37-45-37a42 42 0 0 1-5-59 42 42 0 0 1 32-15 42 42 0 0 1 26 10l84 69a42 42 0 0 1 0 64z" horiz-adv-x="1000" />

<glyph glyph-name="ambulance" unicode="&#xe814;" d="M438 454h-42v42a42 42 0 0 1-83 0v-42h-42a42 42 0 0 1 0-83h42v-42a42 42 0 0 1 83 0v42h42a42 42 0 0 1 0 83z m517-89l-2 4a25 25 0 0 1-3 6l-100 133a125 125 0 0 1-100 50h-83v42a125 125 0 0 1-125 125h-375a125 125 0 0 1-125-125v-458a42 42 0 0 1 41-42h42a125 125 0 0 1 250 0h250a125 125 0 0 1 250 0h42a42 42 0 0 1 41 42v208a42 42 0 0 1-3 15z m-705-307a42 42 0 1 0 42 42 42 42 0 0 0-42-42z m333 125h-240a125 125 0 0 1-185 0h-33v417a42 42 0 0 0 42 42h375a42 42 0 0 0 41-42z m84 292h83a42 42 0 0 0 33-17l50-66h-166z m83-417a42 42 0 1 0 42 42 42 42 0 0 0-42-42z m125 125h-32a125 125 0 0 1-176 10v115h208z" horiz-adv-x="1000" />

<glyph glyph-name="analysis" unicode="&#xe815;" d="M905 546a42 42 0 0 1-60 0l-262-262-178 179a42 42 0 0 1-60 0l-250-250a42 42 0 0 1 0-59 42 42 0 0 1 60 0l220 221 179-180a42 42 0 0 1 59 0l292 292a42 42 0 0 1 0 59z" horiz-adv-x="1000" />

<glyph glyph-name="analytics" unicode="&#xe816;" d="M208 350a42 42 0 0 1-41-42v-333a42 42 0 0 1 83 0v333a42 42 0 0 1-42 42z m209 417a42 42 0 0 1-42-42v-750a42 42 0 0 1 83 0v750a42 42 0 0 1-41 42z m416-584a42 42 0 0 1-41-41v-167a42 42 0 0 1 83 0v167a42 42 0 0 1-42 41z m-208 334a42 42 0 0 1-42-42v-500a42 42 0 0 1 84 0v500a42 42 0 0 1-42 42z" horiz-adv-x="1000" />

<glyph glyph-name="anchor" unicode="&#xe817;" d="M792 308h-84a42 42 0 0 1 0-83h38a250 250 0 0 0-204-205v372h41a42 42 0 0 1 0 83h-41v49a125 125 0 1 1-84 0v-49h-41a42 42 0 0 1 0-83h41v-372a250 250 0 0 0-204 205h38a42 42 0 0 1 0 83h-84a42 42 0 0 1-41-41 333 333 0 0 1 666 0 42 42 0 0 1-41 41z m-292 292a42 42 0 1 0 42 42 42 42 0 0 0-42-42z" horiz-adv-x="1000" />

<glyph glyph-name="android-phone-slash" unicode="&#xe818;" d="M470 112a42 42 0 0 1 60 0 48 48 0 0 1 8 14 39 39 0 0 1 0 32 48 48 0 0 1-8 13 42 42 0 0 1-60 0 48 48 0 0 1-8-13 39 39 0 0 1 0-32 48 48 0 0 1 8-14z m-109 571h306a42 42 0 0 0 41-41v-306a42 42 0 0 1 84 0v306a125 125 0 0 1-125 125h-306a42 42 0 0 1 0-84z m544-678l-750 750a42 42 0 0 1-60-60l113-112v-525a125 125 0 0 1 125-125h334a125 125 0 0 1 115 77l63-65a42 42 0 0 1 60 0 42 42 0 0 1 0 60z m-197 53a42 42 0 0 0-41-41h-334a42 42 0 0 0-41 41v442l416-417z" horiz-adv-x="1000" />

<glyph glyph-name="angle-double-down" unicode="&#xe819;" d="M470 373a42 42 0 0 1 60 0l125 125a42 42 0 1 1-60 60l-95-97-95 97a42 42 0 1 1-60-60z m125-45l-95-96-95 96a42 42 0 0 1-60-61l125-125a42 42 0 0 1 60 0l125 125a42 42 0 0 1-60 59z" horiz-adv-x="1000" />

<glyph glyph-name="angle-double-left" unicode="&#xe81a;" d="M478 505a42 42 0 0 1-60 0l-125-125a42 42 0 0 1 0-60l125-125a42 42 0 0 1 60 0 42 42 0 0 1 0 60l-96 95 95 95a42 42 0 0 1 0 60z m133-155l97 95a42 42 0 0 1-59 60l-125-125a42 42 0 0 1 0-60l125-125a42 42 0 0 1 59 0 42 42 0 0 1 0 60z" horiz-adv-x="1000" />

<glyph glyph-name="angle-double-right" unicode="&#xe81b;" d="M353 505a42 42 0 1 1-61-60l97-95-97-95a42 42 0 0 1 0-60 42 42 0 0 1 59 0l125 125a42 42 0 0 1 0 60z m354-125l-125 125a42 42 0 0 1-59-60l95-95-95-95a42 42 0 0 1 0-60 42 42 0 0 1 59 0l125 125a42 42 0 0 1 1 60z" horiz-adv-x="1000" />

<glyph glyph-name="angle-double-up" unicode="&#xe81c;" d="M530 328a42 42 0 0 1-60 0l-125-125a42 42 0 0 1 60-61l95 97 95-97a42 42 0 0 1 60 0 42 42 0 0 1 0 59z m-125 45l95 95 95-95a42 42 0 0 1 60 0 42 42 0 0 1 0 59l-125 125a42 42 0 0 1-60 0l-125-125a42 42 0 0 1 60-59z" horiz-adv-x="1000" />

<glyph glyph-name="angle-down" unicode="&#xe81d;" d="M708 468a42 42 0 0 1-58 0l-150-148-147 148a42 42 0 0 1-59 0 42 42 0 0 1 0-59l176-177a42 42 0 0 1 60 0l178 177a42 42 0 0 1 0 59z" horiz-adv-x="1000" />

<glyph glyph-name="angle-left" unicode="&#xe81e;" d="M470 350l148 148a42 42 0 0 1 0 58 42 42 0 0 1-59 0l-177-176a42 42 0 0 1 0-60l177-178a42 42 0 0 1 29-12 42 42 0 0 1 30 12 42 42 0 0 1 0 58z" horiz-adv-x="1000" />

<glyph glyph-name="angle-right-b" unicode="&#xe81f;" d="M647 380l-235 235a42 42 0 0 1-59 0 42 42 0 0 1 0-59l206-208-206-206a42 42 0 0 1 0-59 42 42 0 0 1 29-13 42 42 0 0 1 30 13l236 235a42 42 0 0 1 0 62z" horiz-adv-x="1000" />

<glyph glyph-name="angle-right" unicode="&#xe820;" d="M618 380l-177 176a42 42 0 0 1-59 0 42 42 0 0 1 0-58l148-148-148-147a42 42 0 0 1 0-59 42 42 0 0 1 30-12 42 42 0 0 1 29 12l177 176a42 42 0 0 1 0 60z" horiz-adv-x="1000" />

<glyph glyph-name="angle-up" unicode="&#xe821;" d="M708 291l-178 177a42 42 0 0 1-60 0l-176-177a42 42 0 0 1 0-59 42 42 0 0 1 59 0l147 148 148-148a42 42 0 0 1 29-12 42 42 0 0 1 29 12 42 42 0 0 1 2 59z" horiz-adv-x="1000" />

<glyph glyph-name="annoyed-alt" unicode="&#xe822;" d="M611 285l-175-62a42 42 0 0 1 14-81 42 42 0 0 1 14 2l175 63a42 42 0 1 1-28 78z m-167 208a42 42 0 0 1-59 0 42 42 0 0 0-59 0 42 42 0 0 1-58 0 42 42 0 0 1 0-59 125 125 0 0 1 176 0 42 42 0 0 1-2 60z m292 0a42 42 0 0 1-59 0 42 42 0 0 0-59 0 42 42 0 0 1-59 0 42 42 0 0 1 0-59 125 125 0 0 1 177 0 42 42 0 0 1-2 60z m-236 274a417 417 0 1 1 417-417 417 417 0 0 1-417 417z m0-750a333 333 0 1 0 333 333 333 333 0 0 0-333-333z" horiz-adv-x="1000" />

<glyph glyph-name="annoyed" unicode="&#xe823;" d="M375 475a42 42 0 1 1 42-42 42 42 0 0 1-42 42z m250-167a208 208 0 0 1-182-107 42 42 0 0 1 15-56 42 42 0 0 1 21-6 42 42 0 0 1 36 21 125 125 0 0 0 110 65 42 42 0 0 1 0 83z m0 167a42 42 0 1 1 42-42 42 42 0 0 1-42 42z m-125 292a417 417 0 1 1 417-417 417 417 0 0 1-417 417z m0-750a333 333 0 1 0 333 333 333 333 0 0 0-333-333z" horiz-adv-x="1000" />

<glyph glyph-name="apps" unicode="&#xe824;" d="M417 308h-292a42 42 0 0 1-42-41v-292a42 42 0 0 1 42-42h292a42 42 0 0 1 41 42v292a42 42 0 0 1-41 41z m-42-291h-208v208h208z m500 750h-292a42 42 0 0 1-41-42v-292a42 42 0 0 1 41-41h292a42 42 0 0 1 42 41v292a42 42 0 0 1-42 42z m-42-292h-208v208h208z m42-167h-292a42 42 0 0 1-41-41v-292a42 42 0 0 1 41-42h292a42 42 0 0 1 42 42v292a42 42 0 0 1-42 41z m-42-291h-208v208h208z m-416 750h-292a42 42 0 0 1-42-42v-292a42 42 0 0 1 42-41h292a42 42 0 0 1 41 41v292a42 42 0 0 1-41 42z m-42-292h-208v208h208z" horiz-adv-x="1000" />

<glyph glyph-name="archive-alt" unicode="&#xe825;" d="M417 308h166a42 42 0 0 1 0 84h-166a42 42 0 0 1 0-84z m375 417h-584a125 125 0 0 1-41-242v-383a125 125 0 0 1 125-125h416a125 125 0 0 1 125 125v383a125 125 0 0 1-41 242z m-42-625a42 42 0 0 0-42-42h-416a42 42 0 0 0-42 42v375h500z m42 458h-584a42 42 0 0 0 0 84h584a42 42 0 0 0 0-84z" horiz-adv-x="1000" />

<glyph glyph-name="archive" unicode="&#xe826;" d="M417 267h166a42 42 0 0 1 0 83h-166a42 42 0 0 1 0-83z m375 458h-584a125 125 0 0 1-125-125v-125a42 42 0 0 1 42-42h42v-333a125 125 0 0 1 125-125h416a125 125 0 0 1 125 125v333h42a42 42 0 0 1 42 42v125a125 125 0 0 1-125 125z m-42-625a42 42 0 0 0-42-42h-416a42 42 0 0 0-42 42v333h500z m83 417h-666v83a42 42 0 0 0 41 42h584a42 42 0 0 0 41-42z" horiz-adv-x="1000" />

<glyph glyph-name="arrow-break" unicode="&#xe827;" d="M292 392h416a42 42 0 0 1 0 83h-166v150l33-34a42 42 0 0 1 59 0 42 42 0 0 1 0 59l-104 105a42 42 0 0 1-14 8 42 42 0 0 1-32 0 42 42 0 0 1-14-8l-104-105a42 42 0 0 1 59-59l33 34v-150h-166a42 42 0 0 1 0-83z m416-84h-416a42 42 0 0 1 0-83h166v-150l-33 34a42 42 0 0 1-59-59l104-105a42 42 0 0 1 14-8 39 39 0 0 1 32 0 42 42 0 0 1 14 8l104 105a42 42 0 0 1-59 59l-33-34v150h166a42 42 0 0 1 0 83z" horiz-adv-x="1000" />

<glyph glyph-name="arrow-circle-down" unicode="&#xe828;" d="M470 195a42 42 0 0 1 14-8 42 42 0 0 1 32 0 42 42 0 0 1 14 8l125 125a42 42 0 0 1-60 60l-53-55v150a42 42 0 0 1-84 0v-150l-53 55a42 42 0 0 1-60 0 42 42 0 0 1 0-60z m30-262a417 417 0 1 1-417 417 417 417 0 0 1 417-417z m0 750a333 333 0 1 0-333-333 333 333 0 0 0 333 333z" horiz-adv-x="1000" />

<glyph glyph-name="arrow-circle-left" unicode="&#xe829;" d="M345 380a42 42 0 0 1-8-14 42 42 0 0 1 0-32 42 42 0 0 1 8-14l125-125a42 42 0 0 1 60 60l-55 53h150a42 42 0 0 1 0 84h-150l55 53a42 42 0 0 1 0 60 42 42 0 0 1-60 0z m-262-30a417 417 0 1 1 417 417 417 417 0 0 1-417-417z m750 0a333 333 0 1 0-333 333 333 333 0 0 0 333-333z" horiz-adv-x="1000" />

<glyph glyph-name="arrow-circle-right" unicode="&#xe82a;" d="M655 320a42 42 0 0 1 8 14 42 42 0 0 1 0 32 42 42 0 0 1-8 14l-125 125a42 42 0 0 1-60-60l55-53h-150a42 42 0 0 1 0-84h150l-55-53a42 42 0 0 1 0-60 42 42 0 0 1 60 0z m262 30a417 417 0 1 1-417-417 417 417 0 0 1 417 417z m-750 0a333 333 0 1 0 333-333 333 333 0 0 0-333 333z" horiz-adv-x="1000" />

<glyph glyph-name="arrow-circle-up" unicode="&#xe82b;" d="M530 505a42 42 0 0 1-14 8 42 42 0 0 1-32 0 42 42 0 0 1-14-8l-125-125a42 42 0 0 1 60-60l53 55v-150a42 42 0 0 1 84 0v150l53-55a42 42 0 0 1 60 0 42 42 0 0 1 0 60z m-30 262a417 417 0 1 1 417-417 417 417 0 0 1-417 417z m0-750a333 333 0 1 0 333 333 333 333 0 0 0-333-333z" horiz-adv-x="1000" />

<glyph glyph-name="arrow-compress-h" unicode="&#xe82c;" d="M500 642a42 42 0 0 1-42-42v-500a42 42 0 0 1 84 0v500a42 42 0 0 1-42 42z m-54-262l-104 104a42 42 0 1 1-59-59l33-33h-191a42 42 0 0 1 0-84h191l-33-33a42 42 0 0 1 0-59 42 42 0 0 1 59 0l104 104a42 42 0 0 1 9 14 39 39 0 0 1 0 32 42 42 0 0 1-9 14z m429 12h-191l33 33a42 42 0 0 1-59 59l-104-104a42 42 0 0 1 0-60l104-104a42 42 0 0 1 59 0 42 42 0 0 1 0 59l-33 33h191a42 42 0 0 1 0 84z" horiz-adv-x="1000" />

<glyph glyph-name="arrow-down-left" unicode="&#xe82d;" d="M708 183h-316l346 346a42 42 0 1 1-59 59l-346-346v316a42 42 0 0 1-83 0v-416a42 42 0 0 1 3-16 42 42 0 0 1 23-23 42 42 0 0 1 16-3h416a42 42 0 0 1 0 83z" horiz-adv-x="1000" />

<glyph glyph-name="arrow-down-right" unicode="&#xe82e;" d="M708 600a42 42 0 0 1-41-42v-316l-346 346a42 42 0 0 1-59-59l346-346h-316a42 42 0 0 1 0-83h416a42 42 0 0 1 16 3 42 42 0 0 1 23 23 42 42 0 0 1 3 16v416a42 42 0 0 1-42 42z" horiz-adv-x="1000" />

<glyph glyph-name="arrow-down" unicode="&#xe82f;" d="M738 380a42 42 0 0 1-59 0l-137-138v316a42 42 0 0 1-84 0v-316l-137 138a42 42 0 0 1-59-60l208-208a42 42 0 0 1 14-9 39 39 0 0 1 32 0 42 42 0 0 1 14 9l208 208a42 42 0 0 1 0 60z" horiz-adv-x="1000" />

<glyph glyph-name="arrow-from-right" unicode="&#xe830;" d="M125 683a42 42 0 0 1-42-41v-584a42 42 0 0 1 84 0v584a42 42 0 0 1-42 41z m788-317a42 42 0 0 1-8 14l-167 166a42 42 0 1 1-59-59l96-95h-483a42 42 0 0 1 0-84h483l-96-95a42 42 0 0 1 0-59 42 42 0 0 1 59 0l167 166a42 42 0 0 1 8 14 42 42 0 0 1 0 32z" horiz-adv-x="1000" />

<glyph glyph-name="arrow-from-top" unicode="&#xe831;" d="M637 171l-95-96v483a42 42 0 0 1-84 0v-483l-95 96a42 42 0 1 1-59-59l166-167a42 42 0 0 1 14-8 39 39 0 0 1 32 0 42 42 0 0 1 14 8l166 167a42 42 0 0 1-59 59z m155 596h-584a42 42 0 0 1 0-84h584a42 42 0 0 1 0 84z" horiz-adv-x="1000" />

<glyph glyph-name="arrow-growth" unicode="&#xe832;" d="M913 574a42 42 0 0 1-22 23 42 42 0 0 1-16 3h-208a42 42 0 0 1 0-83h108l-233-233-137 137a42 42 0 0 1-60 0l-250-250a42 42 0 0 1 0-59 42 42 0 0 1 60 0l220 221 137-138a42 42 0 0 1 59 0l262 263v-108a42 42 0 0 1 84 0v208a42 42 0 0 1-4 16z" horiz-adv-x="1000" />

<glyph glyph-name="arrow-left" unicode="&#xe833;" d="M708 392h-316l138 137a42 42 0 1 1-60 59l-208-208a42 42 0 0 1-9-14 42 42 0 0 1 0-32 42 42 0 0 1 9-14l208-208a42 42 0 0 1 60 0 42 42 0 0 1 0 59l-138 137h316a42 42 0 0 1 0 84z" horiz-adv-x="1000" />

<glyph glyph-name="arrow-random" unicode="&#xe834;" d="M362 433a42 42 0 0 1 59 0 42 42 0 0 1 0 59l-261 263a42 42 0 0 1-59-60z m513-166a42 42 0 0 1-42-42v-150l-190 192a42 42 0 0 1-60-60l192-190h-150a42 42 0 0 1 0-84h250a42 42 0 0 1 16 4 42 42 0 0 1 22 22 42 42 0 0 1 4 16v250a42 42 0 0 1-42 42z m38 474a42 42 0 0 1-22 22 42 42 0 0 1-16 4h-250a42 42 0 0 1 0-84h150l-680-678a42 42 0 0 1 0-60 42 42 0 0 1 60 0l678 680v-150a42 42 0 0 1 84 0v250a42 42 0 0 1-4 16z" horiz-adv-x="1000" />

<glyph glyph-name="arrow-resize-diagonal" unicode="&#xe835;" d="M913 741a42 42 0 0 1-22 22 42 42 0 0 1-16 4h-250a42 42 0 0 1 0-84h150l-608-608v150a42 42 0 0 1-84 0v-250a42 42 0 0 1 4-16 42 42 0 0 1 22-22 42 42 0 0 1 16-4h250a42 42 0 0 1 0 84h-150l608 608v-150a42 42 0 0 1 84 0v250a42 42 0 0 1-4 16z" horiz-adv-x="1000" />

<glyph glyph-name="arrow-right" unicode="&#xe836;" d="M747 366a42 42 0 0 1-9 14l-208 208a42 42 0 0 1-60-59l138-137h-316a42 42 0 0 1 0-84h316l-138-137a42 42 0 0 1 0-59 42 42 0 0 1 60 0l208 208a42 42 0 0 1 9 14 42 42 0 0 1 0 32z" horiz-adv-x="1000" />

<glyph glyph-name="arrow-to-bottom" unicode="&#xe837;" d="M792 17h-584a42 42 0 0 1 0-84h584a42 42 0 0 1 0 84z m-322 95a42 42 0 0 1 14-9 39 39 0 0 1 32 0 42 42 0 0 1 14 9l166 167a42 42 0 0 1-59 59l-95-96v483a42 42 0 0 1-84 0v-483l-95 96a42 42 0 1 1-59-59z" horiz-adv-x="1000" />

<glyph glyph-name="arrow-to-right" unicode="&#xe838;" d="M738 380l-167 166a42 42 0 1 1-59-59l96-95h-483a42 42 0 0 1 0-84h483l-96-95a42 42 0 0 1 0-59 42 42 0 0 1 59 0l167 166a42 42 0 0 1 9 14 42 42 0 0 1 0 32 42 42 0 0 1-9 14z m137 303a42 42 0 0 1-42-41v-584a42 42 0 0 1 84 0v584a42 42 0 0 1-42 41z" horiz-adv-x="1000" />

<glyph glyph-name="arrow-up-left" unicode="&#xe839;" d="M392 517h316a42 42 0 0 1 0 83h-416a42 42 0 0 1-16-3 42 42 0 0 1-23-23 42 42 0 0 1-3-16v-416a42 42 0 0 1 83 0v316l346-346a42 42 0 0 1 59 0 42 42 0 0 1 0 59z" horiz-adv-x="1000" />

<glyph glyph-name="arrow-up-right" unicode="&#xe83a;" d="M747 574a42 42 0 0 1-23 23 42 42 0 0 1-16 3h-416a42 42 0 0 1 0-83h316l-346-346a42 42 0 0 1 0-59 42 42 0 0 1 59 0l346 346v-316a42 42 0 0 1 83 0v416a42 42 0 0 1-3 16z" horiz-adv-x="1000" />

<glyph glyph-name="arrow-up" unicode="&#xe83b;" d="M738 380l-208 208a42 42 0 0 1-14 9 42 42 0 0 1-32 0 42 42 0 0 1-14-9l-208-208a42 42 0 0 1 59-60l137 138v-316a42 42 0 0 1 84 0v316l137-138a42 42 0 0 1 59 0 42 42 0 0 1 0 60z" horiz-adv-x="1000" />

<glyph glyph-name="arrows-h-alt" unicode="&#xe83c;" d="M913 366a42 42 0 0 1-8 14l-105 104a42 42 0 0 1-59-59l34-33h-192a42 42 0 0 1 0-84h192l-34-33a42 42 0 0 1 0-59 42 42 0 0 1 59 0l105 104a42 42 0 0 1 8 14 42 42 0 0 1 0 32z m-496 26h-192l34 33a42 42 0 0 1-59 59l-105-104a42 42 0 0 1-8-14 42 42 0 0 1 0-32 42 42 0 0 1 8-14l105-104a42 42 0 0 1 59 0 42 42 0 0 1 0 59l-34 33h192a42 42 0 0 1 0 84z" horiz-adv-x="1000" />

<glyph glyph-name="arrows-h" unicode="&#xe83d;" d="M913 366a42 42 0 0 1-8 14l-167 166a42 42 0 1 1-59-59l96-95h-550l96 95a42 42 0 1 1-59 59l-167-166a42 42 0 0 1-8-14 42 42 0 0 1 0-32 42 42 0 0 1 8-14l167-166a42 42 0 0 1 59 0 42 42 0 0 1 0 59l-96 95h550l-96-95a42 42 0 0 1 0-59 42 42 0 0 1 59 0l167 166a42 42 0 0 1 8 14 42 42 0 0 1 0 32z" horiz-adv-x="1000" />

<glyph glyph-name="arrows-left-down" unicode="&#xe83e;" d="M905 171a42 42 0 0 1-60 0l-95-96v400a125 125 0 0 1-125 125h-400l96 95a42 42 0 0 1-59 60l-167-167a42 42 0 0 1-8-14 42 42 0 0 1 0-31 42 42 0 0 1 8-14l167-167a42 42 0 0 1 59 0 42 42 0 0 1 0 59l-96 96h400a42 42 0 0 0 42-42v-400l-96 96a42 42 0 0 1-59-59l167-167a42 42 0 0 1 14-8 39 39 0 0 1 31 0 42 42 0 0 1 14 8l167 167a42 42 0 0 1 0 59z" horiz-adv-x="1000" />

<glyph glyph-name="arrows-maximize" unicode="&#xe83f;" d="M875 267a42 42 0 0 1-42-42v-150l-608 608h150a42 42 0 0 1 0 84h-250a42 42 0 0 1-16-4 42 42 0 0 1-22-22 42 42 0 0 1-4-16v-250a42 42 0 0 1 84 0v150l608-608h-150a42 42 0 0 1 0-84h250a42 42 0 0 1 16 4 42 42 0 0 1 22 22 42 42 0 0 1 4 16v250a42 42 0 0 1-42 42z" horiz-adv-x="1000" />

<glyph glyph-name="arrows-merge" unicode="&#xe840;" d="M446 380l-104 104a42 42 0 1 1-59-59l33-33h-149v166a42 42 0 0 1-84 0v-416a42 42 0 0 1 84 0v166h149l-33-33a42 42 0 0 1 0-59 42 42 0 0 1 59 0l104 104a42 42 0 0 1 9 14 42 42 0 0 1 0 32 42 42 0 0 1-9 14z m429 220a42 42 0 0 1-42-42v-166h-149l33 33a42 42 0 0 1-59 59l-104-104a42 42 0 0 1-9-14 42 42 0 0 1 0-32 42 42 0 0 1 9-14l104-104a42 42 0 0 1 59 0 42 42 0 0 1 0 59l-33 33h149v-166a42 42 0 0 1 84 0v416a42 42 0 0 1-42 42z" horiz-adv-x="1000" />

<glyph glyph-name="arrows-resize-h" unicode="&#xe841;" d="M417 600a42 42 0 0 1-42-42v-166h-150l34 33a42 42 0 0 1-59 59l-105-104a42 42 0 0 1-8-14 42 42 0 0 1 0-32 42 42 0 0 1 8-14l105-104a42 42 0 0 1 59 0 42 42 0 0 1 0 59l-34 33h150v-166a42 42 0 0 1 83 0v416a42 42 0 0 1-41 42z m496-234a42 42 0 0 1-8 14l-105 104a42 42 0 0 1-59-59l34-33h-150v166a42 42 0 0 1-83 0v-416a42 42 0 0 1 83 0v166h150l-34-33a42 42 0 0 1 0-59 42 42 0 0 1 59 0l105 104a42 42 0 0 1 8 14 42 42 0 0 1 0 32z" horiz-adv-x="1000" />

<glyph glyph-name="arrows-resize-v" unicode="&#xe842;" d="M667 392h-125v233l33-34a42 42 0 0 1 59 0 42 42 0 0 1 0 59l-104 105a42 42 0 0 1-14 8 42 42 0 0 1-32 0 42 42 0 0 1-14-8l-104-105a42 42 0 0 1 59-59l33 34v-233h-125a42 42 0 0 1 0-84h125v-233l-33 34a42 42 0 0 1-59-59l104-105a42 42 0 0 1 14-8 39 39 0 0 1 32 0 42 42 0 0 1 14 8l104 105a42 42 0 0 1-59 59l-33-34v233h125a42 42 0 0 1 0 84z" horiz-adv-x="1000" />

<glyph glyph-name="arrows-resize" unicode="&#xe843;" d="M913 366a42 42 0 0 1-8 14l-105 104a42 42 0 0 1-59-59l34-33h-233v125a42 42 0 0 1-84 0v-125h-233l34 33a42 42 0 0 1-59 59l-105-104a42 42 0 0 1-8-14 42 42 0 0 1 0-32 42 42 0 0 1 8-14l105-104a42 42 0 0 1 59 0 42 42 0 0 1 0 59l-34 33h233v-125a42 42 0 0 1 84 0v125h233l-34-33a42 42 0 0 1 0-59 42 42 0 0 1 59 0l105 104a42 42 0 0 1 8 14 42 42 0 0 1 0 32z" horiz-adv-x="1000" />

<glyph glyph-name="arrows-right-down" unicode="&#xe844;" d="M872 574a42 42 0 0 1-9 14l-125 125a42 42 0 0 1-59-59l54-54h-358a125 125 0 0 1-125-125v-358l-54 54a42 42 0 0 1-59-59l125-125a42 42 0 0 1 14-9 39 39 0 0 1 32 0 42 42 0 0 1 13 9l125 125a42 42 0 0 1-59 59l-54-54v358a42 42 0 0 0 42 42h358l-54-54a42 42 0 0 1 0-59 42 42 0 0 1 59 0l125 125a42 42 0 0 1 9 14 42 42 0 0 1 0 31z" horiz-adv-x="1000" />

<glyph glyph-name="arrows-shrink-h" unicode="&#xe845;" d="M738 380l-104 104a42 42 0 0 1-59-59l33-33h-216l33 33a42 42 0 0 1-59 59l-104-104a42 42 0 0 1-9-14 42 42 0 0 1 0-32 42 42 0 0 1 9-14l104-104a42 42 0 0 1 59 0 42 42 0 0 1 0 59l-33 33h216l-33-33a42 42 0 0 1 0-59 42 42 0 0 1 59 0l104 104a42 42 0 0 1 9 14 42 42 0 0 1 0 32 42 42 0 0 1-9 14z m-613 220a42 42 0 0 1-42-42v-416a42 42 0 0 1 84 0v416a42 42 0 0 1-42 42z m750 0a42 42 0 0 1-42-42v-416a42 42 0 0 1 84 0v416a42 42 0 0 1-42 42z" horiz-adv-x="1000" />

<glyph glyph-name="arrows-shrink-v" unicode="&#xe846;" d="M575 425a42 42 0 0 1 59 0 42 42 0 0 1 0 59l-104 104a42 42 0 0 1-14 9 42 42 0 0 1-32 0 42 42 0 0 1-14-9l-104-104a42 42 0 0 1 59-59l33 33v-216l-33 33a42 42 0 0 1-59-59l104-104a42 42 0 0 1 14-9 39 39 0 0 1 32 0 42 42 0 0 1 14 9l104 104a42 42 0 0 1-59 59l-33-33v216z m-283 258h416a42 42 0 0 1 0 84h-416a42 42 0 0 1 0-84z m416-666h-416a42 42 0 0 1 0-84h416a42 42 0 0 1 0 84z" horiz-adv-x="1000" />

<glyph glyph-name="arrows-up-right" unicode="&#xe847;" d="M872 158a42 42 0 0 1-9 13l-125 125a42 42 0 0 1-59-59l54-54h-358a42 42 0 0 0-42 42v358l54-54a42 42 0 0 1 59 0 42 42 0 0 1 0 59l-125 125a42 42 0 0 1-13 9 42 42 0 0 1-32 0 42 42 0 0 1-14-9l-125-125a42 42 0 0 1 59-59l54 54v-358a125 125 0 0 1 125-125h358l-54-54a42 42 0 0 1 0-59 42 42 0 0 1 59 0l125 125a42 42 0 0 1 9 14 42 42 0 0 1 0 32z" horiz-adv-x="1000" />

<glyph glyph-name="arrows-v-alt" unicode="&#xe848;" d="M425 591l33 34v-192a42 42 0 0 1 84 0v192l33-34a42 42 0 0 1 59 0 42 42 0 0 1 0 59l-104 105a42 42 0 0 1-14 8 42 42 0 0 1-32 0 42 42 0 0 1-14-8l-104-105a42 42 0 0 1 59-59z m150-482l-33-34v192a42 42 0 0 1-84 0v-192l-33 34a42 42 0 0 1-59-59l104-105a42 42 0 0 1 14-8 39 39 0 0 1 32 0 42 42 0 0 1 14 8l104 105a42 42 0 0 1-59 59z" horiz-adv-x="1000" />

<glyph glyph-name="arrows-v" unicode="&#xe849;" d="M637 171l-95-96v550l95-96a42 42 0 0 1 59 0 42 42 0 0 1 0 59l-166 167a42 42 0 0 1-14 8 42 42 0 0 1-32 0 42 42 0 0 1-14-8l-166-167a42 42 0 1 1 59-59l95 96v-550l-95 96a42 42 0 1 1-59-59l166-167a42 42 0 0 1 14-8 39 39 0 0 1 32 0 42 42 0 0 1 14 8l166 167a42 42 0 0 1-59 59z" horiz-adv-x="1000" />

<glyph glyph-name="at" unicode="&#xe84a;" d="M500 767a417 417 0 1 1 208-778 42 42 0 1 1-41 72 333 333 0 1 0 166 289v-31a73 73 0 0 0-145 0v177a42 42 0 0 1-42 42 42 42 0 0 1-42-33 185 185 0 0 1-104 33 188 188 0 1 1 138-313 156 156 0 0 1 279 94v31a417 417 0 0 1-417 417z m0-521a104 104 0 1 0 104 104 104 104 0 0 0-104-104z" horiz-adv-x="1000" />

<glyph glyph-name="atm-card" unicode="&#xe84b;" d="M292 225h125a42 42 0 0 1 0 83h-125a42 42 0 0 1 0-83z m500 417h-584a125 125 0 0 1-125-125v-375a125 125 0 0 1 125-125h584a125 125 0 0 1 125 125v375a125 125 0 0 1-125 125z m41-500a42 42 0 0 0-41-42h-584a42 42 0 0 0-41 42v250h666z m0 333h-666v42a42 42 0 0 0 41 41h584a42 42 0 0 0 41-41z" horiz-adv-x="1000" />

<glyph glyph-name="atom" unicode="&#xe84c;" d="M500 392a42 42 0 1 1 42-42 42 42 0 0 1-42 42z m318-42l4 6c56 77 70 149 39 202s-100 78-194 68h-8c-38 87-94 141-159 141s-121-54-159-142l-8 1c-94 10-163-14-194-68s-17-125 39-202l5-6-5-6c-56-77-70-149-39-202 28-46 81-70 153-70 13 0 26 0 41 2h8c38-86 94-141 159-141s121 54 159 142h7c14 0 28-2 42-2 74 0 128 24 154 70 31 54 18 125-39 202z m-607 167c11 18 42 28 84 28h20a616 616 0 0 1-15-78 625 625 0 0 1-60-52c-32 42-41 81-29 102z m0-334c-12 21 0 60 28 103a625 625 0 0 1 61-52 623 623 0 0 1 14-78c-52-4-91 6-103 27z m289 500c23 0 51-27 75-76a733 733 0 0 1-75-26 733 733 0 0 1-75 26c24 49 52 76 75 76z m0-666c-23 0-51 27-75 76a733 733 0 0 1 75 26 733 733 0 0 1 75-26c-24-49-52-76-75-76z m122 263c-19-14-39-26-59-38s-42-23-63-33q-31 15-62 33c-21 12-42 24-60 38-3 22-3 45-3 70s0 48 3 70c19 14 39 26 60 38s41 23 62 33q31-15 63-33c20-12 41-24 59-38 0-22 3-45 3-70s0-48-3-70z m167-97c-12-20-51-31-103-27a623 623 0 0 1 14 78 625 625 0 0 1 61 52c31-43 40-82 28-103z m-28 231a625 625 0 0 1-61 52 616 616 0 0 1-14 78h20c42 0 72-10 84-29s2-58-29-101z" horiz-adv-x="1000" />

<glyph glyph-name="auto-flash" unicode="&#xe84d;" d="M745 492a42 42 0 0 1-37 25h-190l52 197a42 42 0 0 1-7 36 42 42 0 0 1-33 17h-292a42 42 0 0 1-41-31l-112-417a42 42 0 0 1 42-52h160l-75-281a42 42 0 0 1 71-39l454 500a42 42 0 0 1 8 45z m-408-362l45 167a42 42 0 0 1-7 37 42 42 0 0 1-34 16h-160l89 333h206l-53-197a42 42 0 0 1 42-53h148z m455 178h-42a125 125 0 0 1-125-125v-208a42 42 0 0 1 83 0v83h125v-83a42 42 0 0 1 84 0v208a125 125 0 0 1-125 125z m41-166h-125v41a42 42 0 0 0 42 42h42a42 42 0 0 0 41-42z" horiz-adv-x="1000" />

<glyph glyph-name="award-alt" unicode="&#xe84e;" d="M500 808a292 292 0 0 1-208-495v-380a42 42 0 0 1 60-37l148 74 148-74a42 42 0 0 1 19-4 42 42 0 0 1 22 6 42 42 0 0 1 19 35v380a292 292 0 0 1-208 495z m125-807l-106 53a42 42 0 0 1-38 0l-106-53v252a292 292 0 0 1 83-25v-45a42 42 0 0 1 84 0v45a292 292 0 0 1 83 25z m-125 307a208 208 0 1 0 208 209 208 208 0 0 0-208-209z" horiz-adv-x="1000" />

<glyph glyph-name="award" unicode="&#xe84f;" d="M870 131l-113 195a288 288 0 0 1 35 139 292 292 0 0 1-584 0 288 288 0 0 1 35-139l-113-195a42 42 0 0 1 37-62h119l61-103a42 42 0 0 1 8-9 42 42 0 0 1 28-12h6a42 42 0 0 1 31 21l80 138 80-139a42 42 0 0 1 31-20h6a42 42 0 0 1 29 11 36 36 0 0 1 7 9l61 103h119a42 42 0 0 1 37 20 42 42 0 0 1 0 43z m-487-63l-37 62a42 42 0 0 1-36 20h-72l60 103a292 292 0 0 1 149-76z m117 188a208 208 0 1 0 208 209 208 208 0 0 0-208-209z m190-106a42 42 0 0 1-36-20l-37-62-63 110a294 294 0 0 1 148 77l60-104z" horiz-adv-x="1000" />

<glyph glyph-name="baby-carriage" unicode="&#xe850;" d="M792 183a125 125 0 1 1 125-125 125 125 0 0 1-125 125z m0-166a42 42 0 1 0 41 41 42 42 0 0 0-41-41z m-417 166a125 125 0 1 1 125-125 125 125 0 0 1-125 125z m0-166a42 42 0 1 0 42 41 42 42 0 0 0-42-41z m542 479a271 271 0 0 1-271 271h-21a42 42 0 0 1-42-42v-208h-270l-52 139a42 42 0 0 1-39 27h-97a42 42 0 0 1 0-83h68l52-140 22-57v-4a268 268 0 0 1 254-174h125a270 270 0 0 1 271 271z m-139-133a186 186 0 0 0-132-55h-125a186 186 0 0 0-174 117 6 6 0 0 0 0 3l-3 5h479a180 180 0 0 0-45-70z m-111 154v166a187 187 0 0 0 166-166z" horiz-adv-x="1000" />

<glyph glyph-name="backpack" unicode="&#xe851;" d="M542 433h-84a42 42 0 0 1 0-83h84a42 42 0 0 1 0 83z m208 0a167 167 0 0 1-125 161v48a125 125 0 0 1-250 0v-48a167 167 0 0 1-125-161 167 167 0 0 1-167-166v-125a125 125 0 0 1 125-125h50a125 125 0 0 1 117-84h250a125 125 0 0 1 118 84h49a125 125 0 0 1 125 125v125a167 167 0 0 1-167 166z m-500-333h-42a42 42 0 0 0-41 42v125a83 83 0 0 0 83 83z m208 542a42 42 0 0 0 84 0v-42h-84z m209-584a42 42 0 0 0-42-41h-250a42 42 0 0 0-42 41v42a83 83 0 0 0 84 83h166a83 83 0 0 0 84-83z m0 185a163 163 0 0 1-84 24h-166a163 163 0 0 1-84-24v190a83 83 0 0 0 84 84h166a83 83 0 0 0 84-84z m166-101a42 42 0 0 0-41-42h-42v250a83 83 0 0 0 83-83z" horiz-adv-x="1000" />

<glyph glyph-name="backspace" unicode="&#xe852;" d="M792 642h-382a125 125 0 0 1-89-37l-226-225a42 42 0 0 1 0-60l226-225a125 125 0 0 1 89-37h382a125 125 0 0 1 125 125v334a125 125 0 0 1-125 125z m41-459a42 42 0 0 0-41-41h-382a44 44 0 0 0-30 12l-196 196 196 196a44 44 0 0 0 30 12h382a42 42 0 0 0 41-41z m-137 280a42 42 0 0 1-59 0l-54-54-53 54a42 42 0 0 1-60-59l55-54-55-54a42 42 0 0 1 0-59 42 42 0 0 1 60 0l53 54 54-54a42 42 0 0 1 59 0 42 42 0 0 1 0 59l-54 54 54 54a42 42 0 0 1 0 59z" horiz-adv-x="1000" />

<glyph glyph-name="backward" unicode="&#xe853;" d="M861 606a110 110 0 0 1-111 0l-167-96a111 111 0 0 1-166 97l-278-161a111 111 0 0 1 0-192l278-161a111 111 0 0 1 111 0 110 110 0 0 1 55 97l167-97a112 112 0 0 1 55-15 109 109 0 0 1 56 16 110 110 0 0 1 56 96v320a110 110 0 0 1-56 96z m-361-416a28 28 0 0 0-14-25 29 29 0 0 0-28 0l-278 161a28 28 0 0 0 0 48l278 161a28 28 0 0 0 28 0 28 28 0 0 0 14-25z m333 0a28 28 0 0 0-41-24l-209 120v128l209 120a28 28 0 0 0 41-24z" horiz-adv-x="1000" />

<glyph glyph-name="bag-alt" unicode="&#xe854;" d="M792 579h-125v42a125 125 0 0 1-125 125h-84a125 125 0 0 1-125-125v-42h-125a125 125 0 0 1-125-125v-375a125 125 0 0 1 125-125h584a125 125 0 0 1 125 125v375a125 125 0 0 1-125 125z m-375 42a42 42 0 0 0 41 42h84a42 42 0 0 0 41-42v-42h-166z m416-542a42 42 0 0 0-41-41h-584a42 42 0 0 0-41 41v229a905 905 0 0 1 333-63 906 906 0 0 1 333 63z m0 321a829 829 0 0 0-666 0v54a42 42 0 0 0 41 42h584a42 42 0 0 0 41-42z" horiz-adv-x="1000" />

<glyph glyph-name="bag-slash" unicode="&#xe855;" d="M792 600h-125v42a83 83 0 0 1-84 83h-166a78 78 0 0 1-26-4 42 42 0 0 1-26-53 42 42 0 0 1 52-26h166v-42h-56a42 42 0 0 1 0-83h265a42 42 0 0 0 41-42v-53l-107-36a42 42 0 0 1-26-53 42 42 0 0 1 40-28 50 50 0 0 1 13 2l80 27v-123a42 42 0 1 1 84 0v264a125 125 0 0 1-125 125z m-637 155a42 42 0 0 1-60-60l98-95a125 125 0 0 1-110-125v-375a125 125 0 0 1 125-125h584a128 128 0 0 1 22 2l31-32a42 42 0 0 1 60 0 42 42 0 0 1 0 60z m12-280a42 42 0 0 0 41 42h67l166-167h-59l-215 72z m41-417a42 42 0 0 0-41 42v234l195-67a50 50 0 0 1 13 0h150l208-209z" horiz-adv-x="1000" />

<glyph glyph-name="bag" unicode="&#xe856;" d="M792 600h-125v42a83 83 0 0 1-84 83h-166a83 83 0 0 1-84-83v-42h-125a125 125 0 0 1-125-125v-375a125 125 0 0 1 125-125h584a125 125 0 0 1 125 125v375a125 125 0 0 1-125 125z m-375 42h166v-42h-166z m416-542a42 42 0 0 0-41-42h-584a42 42 0 0 0-41 42v234l195-67a50 50 0 0 1 13 0h250a50 50 0 0 1 13 2l195 65z m0 322l-215-72h-236l-215 72v53a42 42 0 0 0 41 42h584a42 42 0 0 0 41-42z" horiz-adv-x="1000" />

<glyph glyph-name="ball" unicode="&#xe857;" d="M863 179l-68 69a39 39 0 0 0-10 44 241 241 0 0 1 23 100 15 15 0 0 1 0 4 239 239 0 0 1-44 139 590 590 0 0 1-216 184 292 292 0 0 1-333-54l-28-28a292 292 0 0 1-54-336l4-7a125 125 0 0 1-35-86 125 125 0 0 1 190-105c7-6 14-13 21-18a231 231 0 0 1 51-27h4c7-3 15-5 24-8h6a212 212 0 0 1 39-6h26c9 0 17 0 26 3h7a227 227 0 0 1 59 18 42 42 0 0 0 45-8l61-61a142 142 0 0 1 99-42 119 119 0 0 1 84 36l16 15a125 125 0 0 1 3 174z m-638-13a42 42 0 1 0 42 41 42 42 0 0 0-42-41z m130-6l-11 8a122 122 0 0 1 6 39 125 125 0 0 1-125 125h-15l-4 7a208 208 0 0 0 39 240l27 28a208 208 0 0 0 240 35 500 500 0 0 0 177-149z m449-99l-16-16c-17-17-44-14-67 9l-61 60a125 125 0 0 1-139 26 141 141 0 0 0-41-13 118 118 0 0 0-25-2h-18l286 286a158 158 0 0 0-14-84 125 125 0 0 1 26-139l68-68a42 42 0 0 0 1-59z" horiz-adv-x="1000" />

<glyph glyph-name="ban" unicode="&#xe858;" d="M500 767a417 417 0 1 1 417-417 417 417 0 0 1-417 417z m0-750a333 333 0 0 0-333 333 330 330 0 0 0 70 204l467-467a330 330 0 0 0-204-70z m263 129l-467 467a330 330 0 0 0 204 70 333 333 0 0 0 333-333 330 330 0 0 0-70-204z" horiz-adv-x="1000" />

<glyph glyph-name="bars" unicode="&#xe859;" d="M125 517h750a42 42 0 0 1 0 83h-750a42 42 0 0 1 0-83z m750-334h-750a42 42 0 0 1 0-83h750a42 42 0 0 1 0 83z m0 209h-750a42 42 0 0 1 0-84h750a42 42 0 0 1 0 84z" horiz-adv-x="1000" />

<glyph glyph-name="basketball-hoop" unicode="&#xe85a;" d="M750 433h-500a42 42 0 0 1 0-83h42v-375a42 42 0 0 1 83 0v42h83v-42a42 42 0 0 1 84 0v42h83v-42a42 42 0 0 1 83 0v375h42a42 42 0 0 1 0 83z m-292-333h-83v83h83z m0 167h-83v83h83z m167-167h-83v83h83z m0 167h-83v83h83z m208 500h-666a125 125 0 0 1-125-125v-334a125 125 0 0 1 125-125 42 42 0 0 1 0 84 42 42 0 0 0-42 41v334a42 42 0 0 0 42 41h666a42 42 0 0 0 42-41v-334a42 42 0 0 0-42-41 42 42 0 0 1 0-84 125 125 0 0 1 125 125v334a125 125 0 0 1-125 125z m-250-250a42 42 0 0 1 0 83h-166a42 42 0 0 1 0-83z" horiz-adv-x="1000" />

<glyph glyph-name="basketball" unicode="&#xe85b;" d="M500 767a417 417 0 0 1-350-192 417 417 0 0 1 611-550 417 417 0 0 1-261 742z m83-94a333 333 0 0 0 239-240 407 407 0 0 1-197-57 654 654 0 0 1-100 92 419 419 0 0 1 58 205z m-83 10a329 329 0 0 0-47-169c-7 3-13 7-19 10a647 647 0 0 1-170 61 333 333 0 0 0 236 98z m-292-173a573 573 0 0 0 187-60l6-3a330 330 0 0 0-234-97 333 333 0 0 0 41 160z m209-482a333 333 0 0 0-240 239 413 413 0 0 1 296 133 583 583 0 0 0 83-75 417 417 0 0 1-139-297z m83-11a333 333 0 0 0 107 243c2-3 5-6 7-9a583 583 0 0 0 76-174 330 330 0 0 0-190-60z m259 125a667 667 0 0 1-75 156l-9 10a330 330 0 0 0 158 42 333 333 0 0 0-74-208z" horiz-adv-x="1000" />

<glyph glyph-name="battery-bolt" unicode="&#xe85c;" d="M279 225h-112v250h96a42 42 0 0 1 0 83h-96a83 83 0 0 1-84-83v-250a83 83 0 0 1 84-83h112a42 42 0 1 1 0 83z m300 107a53 53 0 0 1 2 7 59 59 0 0 1 0 8v3 5a27 27 0 0 1-2 8 37 37 0 0 1-3 7 36 36 0 0 1-4 7l-7 6-4 3h-2l-8 3h-146l61 104a42 42 0 1 1-73 42l-96-167v-3a53 53 0 0 1-2-7 59 59 0 0 1 0-8l-3 0v-5a27 27 0 0 1 2-8 37 37 0 0 1 3-7 36 36 0 0 1 4-7l7-5a32 32 0 0 1 4-4h6a42 42 0 0 1 15-6h137l-61-104a42 42 0 0 1 73-41l96 166s0 2 1 3z m296 101a42 42 0 0 1-42-41v-84a42 42 0 0 1 84 0v84a42 42 0 0 1-42 41z m-167 125h-112a42 42 0 0 1 0-83h112v-250h-96a42 42 0 1 1 0-83h96a83 83 0 0 1 84 83v250a83 83 0 0 1-84 83z" horiz-adv-x="1000" />

<glyph glyph-name="battery-empty" unicode="&#xe85d;" d="M708 558h-541a83 83 0 0 1-84-83v-250a83 83 0 0 1 84-83h541a83 83 0 0 1 84 83v250a83 83 0 0 1-84 83z m0-333h-541v250h541z m167 208a42 42 0 0 1-42-41v-84a42 42 0 0 1 84 0v84a42 42 0 0 1-42 41z" horiz-adv-x="1000" />

<glyph glyph-name="bed-double" unicode="&#xe85e;" d="M833 704h-666a125 125 0 0 1-125-125v-541a42 42 0 0 1 41-42h167a42 42 0 0 1 35 19l71 106h288l71-106a42 42 0 0 1 35-19h167a42 42 0 0 1 41 42v541a125 125 0 0 1-125 125z m42-625h-103l-71 104a42 42 0 0 1-34 21h-334a42 42 0 0 1-34-19l-72-106h-102v209h750z m-583 292v42a42 42 0 0 0 41 41h84a42 42 0 0 0 41-41v-42z m250 0v42a42 42 0 0 0 41 41h84a42 42 0 0 0 41-41v-42z m333 0h-83v42a125 125 0 0 1-125 125h-84a125 125 0 0 1-83-33 125 125 0 0 1-83 33h-84a125 125 0 0 1-125-125v-42h-83v208a42 42 0 0 0 42 42h666a42 42 0 0 0 42-42z" horiz-adv-x="1000" />

<glyph glyph-name="bed" unicode="&#xe85f;" d="M292 329a125 125 0 1 1-125 125 125 125 0 0 1 125-125z m0 167a42 42 0 1 0-42-42 42 42 0 0 0 42 42z m541 83h-333a42 42 0 0 1-42-41v-250h-333v333a42 42 0 0 1-83 0v-542a42 42 0 0 1 83 0v125h750v-125a42 42 0 0 1 83 0v375a125 125 0 0 1-125 125z m42-291h-333v208h291a42 42 0 0 0 42-42z" horiz-adv-x="1000" />

<glyph glyph-name="bell-school" unicode="&#xe860;" d="M875 517a83 83 0 1 1-95-84 187 187 0 0 0-125-243 125 125 0 0 1-54 59 292 292 0 1 1-454 0 125 125 0 0 1-64-107v-42a125 125 0 0 1 125-125h334a125 125 0 0 1 125 125v8a270 270 0 0 1 191 358 83 83 0 0 1 17 51z m-292-417a42 42 0 0 0-41-42h-334a42 42 0 0 0-41 42v42a42 42 0 0 0 41 41h17a289 289 0 0 1 300 0h17a42 42 0 0 0 41-41z m-208 125a208 208 0 1 0 208 208 208 208 0 0 0-208-208z m0 250a42 42 0 1 1 42-42 42 42 0 0 1-42 42z" horiz-adv-x="1000" />

<glyph glyph-name="bell-slash" unicode="&#xe861;" d="M461 595a145 145 0 0 0 39 5 167 167 0 0 0 167-167v-55a42 42 0 0 1 83 0v55a250 250 0 0 1-208 247v45a42 42 0 0 1-84 0v-46l-18-3a42 42 0 0 1 21-81z m444-590l-750 750a42 42 0 0 1-60-60l172-171a250 250 0 0 1-17-91v-132a125 125 0 0 1-83-118v-83a42 42 0 0 1 41-42h131a167 167 0 0 1 322 0h72l112-113a42 42 0 0 1 60 0 42 42 0 0 1 0 60z m-572 428a138 138 0 0 0 0 23l150-148h-150z m167-416a83 83 0 0 0-72 41h144a83 83 0 0 0-72-41z m-250 125v41a42 42 0 0 0 42 42h274l84-83z" horiz-adv-x="1000" />

<glyph glyph-name="bill" unicode="&#xe862;" d="M396 413h104a42 42 0 0 1 0 83h-42v21a42 42 0 0 1-83 0v-23a104 104 0 0 1 21-206h42a21 21 0 0 0 0-42h-105a42 42 0 0 1 0-83h42v-21a42 42 0 0 1 83 0v23a104 104 0 0 1-20 206h-42a21 21 0 0 0 0 41z m479-63h-125v375a42 42 0 0 1-21 36 42 42 0 0 1-41 0l-125-71-125 71a42 42 0 0 1-42 0l-125-71-125 71a42 42 0 0 1-42 0 42 42 0 0 1-21-36v-667a125 125 0 0 1 125-125h584a125 125 0 0 1 125 125v250a42 42 0 0 1-42 42z m-667-333a42 42 0 0 0-41 41v595l83-48a45 45 0 0 1 42 0l125 72 125-72a45 45 0 0 1 41 0l84 48v-595a125 125 0 0 1 7-41z m625 41a42 42 0 0 0-83 0v209h83z" horiz-adv-x="1000" />

<glyph glyph-name="bitcoin-circle" unicode="&#xe863;" d="M500 808a458 458 0 1 1 458-458 458 458 0 0 1-458 458z m0-833a375 375 0 1 0 375 375 375 375 0 0 0-375-375z m83 583v42a42 42 0 0 1-83 0v-42h-42v42a42 42 0 0 1-83 0v-42h-42a42 42 0 0 1 0-83h42v-250h-42a42 42 0 0 1 0-83h42v-42a42 42 0 0 1 83 0v42h42v-42a42 42 0 0 1 83 0v42a125 125 0 0 1 125 125 125 125 0 0 1-32 83 125 125 0 0 1 32 83 125 125 0 0 1-125 125z m0-333h-125v83h125a42 42 0 0 0 0-83z m0 167h-125v83h125a42 42 0 0 0 0-83z" horiz-adv-x="1000" />

<glyph glyph-name="bitcoin" unicode="&#xe864;" d="M792 475a167 167 0 0 1-167 167v83a42 42 0 0 1-83 0v-83h-84v83a42 42 0 0 1-83 0v-83h-125a42 42 0 0 1 0-84h42v-416h-42a42 42 0 0 1 0-84h125v-83a42 42 0 0 1 83 0v83h84v-83a42 42 0 0 1 83 0v83a167 167 0 0 1 109 292 167 167 0 0 1 58 125z m-167-333h-250v166h250a83 83 0 0 0 0-166z m0 250h-250v166h250a83 83 0 0 0 0-166z" horiz-adv-x="1000" />

<glyph glyph-name="bluetooth-b" unicode="&#xe865;" d="M559 350l158 158a42 42 0 0 1 0 59l-187 188a42 42 0 0 1-14 8 42 42 0 0 1-32 0 42 42 0 0 1-22-22 42 42 0 0 1-4-16v-275l-116 117a42 42 0 1 1-59-59l158-158-158-158a42 42 0 1 1 59-59l116 117v-275a42 42 0 0 1 4-16 42 42 0 0 1 22-22 39 39 0 0 1 32 0 42 42 0 0 1 14 8l187 188a42 42 0 0 1 0 59z m-17 275l87-87-87-88z m0-550v175l87-87z" horiz-adv-x="1000" />

<glyph glyph-name="bolt-alt" unicode="&#xe866;" d="M829 452a42 42 0 0 1-37 23h-209v250a42 42 0 0 1-28 42 42 42 0 0 1-47-15l-333-459a42 42 0 0 1-4-41 42 42 0 0 1 37-27h209v-250a42 42 0 0 1 28-40 47 47 0 0 1 13-2 42 42 0 0 1 34 17l333 459a42 42 0 0 1 4 43z m-329-349v164a42 42 0 0 1-42 41h-166l208 289v-164a42 42 0 0 1 42-41h166z" horiz-adv-x="1000" />

<glyph glyph-name="bolt-slash" unicode="&#xe867;" d="M361 674a42 42 0 0 1 39 9h212l-52-197a42 42 0 0 1 7-36 42 42 0 0 1 33-17h150l-47-51a42 42 0 0 1 3-59 42 42 0 0 1 28-11 42 42 0 0 1 31 14l110 121a42 42 0 0 1-32 70h-189l54 197a42 42 0 0 1-7 36 42 42 0 0 1-34 17h-292a42 42 0 0 1-42-31v-11a42 42 0 0 1 28-51z m542-669l-750 750a42 42 0 0 1-58-60l180-178-52-198a42 42 0 0 1 7-36 42 42 0 0 1 33-16h160l-75-281a42 42 0 0 1 20-48 42 42 0 0 1 20-5 42 42 0 0 1 31 14l202 223 224-225a42 42 0 0 1 60 0 42 42 0 0 1 0 60z m-585 345l26 98 97-98z m155-220l42 148 50-49z" horiz-adv-x="1000" />

<glyph glyph-name="bolt" unicode="&#xe868;" d="M828 492a42 42 0 0 1-36 25h-191l53 197a42 42 0 0 1-7 36 42 42 0 0 1-33 17h-292a42 42 0 0 1-42-31l-111-417a42 42 0 0 1 7-36 42 42 0 0 1 33-16h161l-75-281a42 42 0 0 1 71-39l454 500a42 42 0 0 1 8 45z m-408-362l45 167a42 42 0 0 1-7 36 42 42 0 0 1-33 16h-160l89 334h205l-53-197a42 42 0 0 1 42-53h149z" horiz-adv-x="1000" />

<glyph glyph-name="book-alt" unicode="&#xe869;" d="M750 767h-417a167 167 0 0 1-166-167v-500a167 167 0 0 1 166-167h417a83 83 0 0 1 83 84v666a83 83 0 0 1-83 84z m-500-167a83 83 0 0 0 83 83h417v-416h-417a163 163 0 0 1-83-24z m83-583a83 83 0 0 0 0 166h417v-166z m84 500h166a42 42 0 0 1 0 83h-166a42 42 0 0 1 0-83z" horiz-adv-x="1000" />

<glyph glyph-name="book-medical" unicode="&#xe86a;" d="M542 475h-84v83a42 42 0 0 1-83 0v-83h-83a42 42 0 0 1 0-83h83v-84a42 42 0 0 1 83 0v84h84a42 42 0 0 1 0 83z m208-250v417a125 125 0 0 1-125 125h-417a125 125 0 0 1-125-125v-417a125 125 0 0 1 125-125h417a125 125 0 0 1 125 125z m-583 0v417a42 42 0 0 0 41 41h417a42 42 0 0 0 42-41v-417a42 42 0 0 0-42-42h-417a42 42 0 0 0-41 42z m708 375a42 42 0 0 1-42-42v-416a125 125 0 0 0-125-125h-416a42 42 0 0 1 0-84h416a208 208 0 0 1 209 209v416a42 42 0 0 1-42 42z" horiz-adv-x="1000" />

<glyph glyph-name="book-open" unicode="&#xe86b;" d="M882 764a546 546 0 0 1-90 8 539 539 0 0 1-292-85 539 539 0 0 1-292 83 546 546 0 0 1-90-8 42 42 0 0 1-35-42v-500a42 42 0 0 1 49-41 454 454 0 0 0 344-80l5-3h4a38 38 0 0 1 30 0h4l5 3a454 454 0 0 0 344 84 42 42 0 0 1 49 42v500a42 42 0 0 1-35 39z m-424-554a536 536 0 0 1-250 62h-41v417a362 362 0 0 0 41 0 452 452 0 0 0 250-75z m375 60h-41a536 536 0 0 1-250-61v405a452 452 0 0 0 250 75 362 362 0 0 0 41 0z m49-172a546 546 0 0 1-90 7 539 539 0 0 1-292-85 539 539 0 0 1-292 85 546 546 0 0 1-90-7 42 42 0 0 1-35-48 42 42 0 0 1 49-33 454 454 0 0 0 344-80 42 42 0 0 1 48 0 454 454 0 0 0 344 80 42 42 0 0 1 49 33 42 42 0 0 1-35 48z" horiz-adv-x="1000" />

<glyph glyph-name="book-reader" unicode="&#xe86c;" d="M841 425a496 496 0 0 1-91 8c-17 0-35 0-52-3a246 246 0 0 1-79 69 159 159 0 0 1 41 107 161 161 0 0 1-321 0 159 159 0 0 1 41-107 255 255 0 0 1-79-69c-16 3-33 3-51 3a496 496 0 0 1-91-8 42 42 0 0 1-34-42v-344a42 42 0 0 1 15-32 42 42 0 0 1 34-9 406 406 0 0 0 76 9 412 412 0 0 0 227-68l6-2a45 45 0 0 1 17-4 36 36 0 0 1 12 2h3l5 3a412 412 0 0 0 230 69 406 406 0 0 0 76-7 42 42 0 0 1 34 9 42 42 0 0 1 15 32v344a42 42 0 0 1-34 40z m-341 258a78 78 0 0 0 0-154 78 78 0 0 0 0 154z m-42-638a497 497 0 0 1-208 45c-14 0-27 0-42-2v262a401 401 0 0 0 105-2h5a417 417 0 0 0 140-53z m42 322a490 490 0 0 1-57 28h-3c-14 5-27 11-42 15a167 167 0 0 0 102 36 167 167 0 0 0 102-35 518 518 0 0 1-102-44z m292-279a483 483 0 0 1-250-41v250a407 407 0 0 0 140 51h8a391 391 0 0 0 102 2z" horiz-adv-x="1000" />

<glyph glyph-name="book" unicode="&#xe86d;" d="M625 600h-250a42 42 0 0 1-42-42v-166a42 42 0 0 1 42-42h250a42 42 0 0 1 42 42v166a42 42 0 0 1-42 42z m-42-167h-166v84h166z m125 334h-500a42 42 0 0 1-41-42v-750a42 42 0 0 1 41-42h500a125 125 0 0 1 125 125v584a125 125 0 0 1-125 125z m42-709a42 42 0 0 0-42-41h-458v666h458a42 42 0 0 0 42-41z" horiz-adv-x="1000" />

<glyph glyph-name="bookmark-full" unicode="&#xe86e;" d="M750 767h-500a42 42 0 0 1-42-42v-750a42 42 0 0 1 69-32l223 187 220-185a42 42 0 0 1 30-12 35 35 0 0 1 16 4 42 42 0 0 1 26 38v750a42 42 0 0 1-42 42z m-42-703l-181 153a42 42 0 0 1-54 0l-181-153v619h416z" horiz-adv-x="1000" />

<glyph glyph-name="bookmark" unicode="&#xe86f;" d="M667 767h-334a125 125 0 0 1-125-125v-667a42 42 0 0 1 21-36 42 42 0 0 1 42 0l229 132 229-132a42 42 0 0 1 21-6 42 42 0 0 1 21 6 42 42 0 0 1 21 36v667a125 125 0 0 1-125 125z m41-720l-187 108a42 42 0 0 1-42 0l-187-108v595a42 42 0 0 0 41 41h334a42 42 0 0 0 41-41z" horiz-adv-x="1000" />

<glyph glyph-name="books" unicode="&#xe870;" d="M936 66l-41 161-132 483a42 42 0 0 1-51 29l-161-41a42 42 0 0 1-30 13h-417a42 42 0 0 1-42-41v-667a42 42 0 0 1 42-42h417a42 42 0 0 1 41 42v333l92-342a42 42 0 0 1 42-31 48 48 0 0 1 11 0l201 54a42 42 0 0 1 25 19 44 44 0 0 1 3 30z m-666-23h-125v83h125z m0 167h-125v250h125z m0 333h-125v83h125z m208-500h-125v83h125z m0 167h-125v250h125z m0 333h-125v83h125z m94 72l120 33 22-80-121-33z m108-402l-65 242 121 32 64-242z m41-161l-21 81 120 32 22-80z" horiz-adv-x="1000" />

<glyph glyph-name="boombox" unicode="&#xe871;" d="M708 767h-416a125 125 0 0 1-125-125v-584a125 125 0 0 1 125-125h416a125 125 0 0 1 125 125v584a125 125 0 0 1-125 125z m42-709a42 42 0 0 0-42-41h-416a42 42 0 0 0-42 41v584a42 42 0 0 0 42 41h416a42 42 0 0 0 42-41z m-151 342a125 125 0 0 1 26 75 125 125 0 0 1-250 0 125 125 0 0 1 26-75 167 167 0 1 1 198 0z m-99 117a42 42 0 1 0-42-42 42 42 0 0 0 42 42z m0-334a83 83 0 1 0 83 84 83 83 0 0 0-83-84z" horiz-adv-x="1000" />

<glyph glyph-name="border-alt" unicode="&#xe872;" d="M479 79a42 42 0 1 1 42-41 42 42 0 0 1-42 41z m375 625a42 42 0 0 1-41 42h-667a42 42 0 0 1-42-42v-666a42 42 0 0 1 84 0v625h625a42 42 0 0 1 41 41z m-208-625a42 42 0 1 1 41-41 42 42 0 0 1-41 41z m-334 0a42 42 0 1 1 42-41 42 42 0 0 1-42 41z m501 500a42 42 0 1 1 41-41 42 42 0 0 1-41 41z m0-166a42 42 0 1 1 41-42 42 42 0 0 1-41 42z m0-167a42 42 0 1 1 41-42 42 42 0 0 1-41 42z m0-167a42 42 0 1 1 41-41 42 42 0 0 1-41 41z" horiz-adv-x="1000" />

<glyph glyph-name="border-bottom" unicode="&#xe873;" d="M500 288a42 42 0 1 1-42 41 42 42 0 0 1 42-41z m0-167a42 42 0 1 1-42 42 42 42 0 0 1 42-42z m0 333a42 42 0 1 1-42 42 42 42 0 0 1 42-42z m-167 167a42 42 0 1 1-41 42 42 42 0 0 1 41-42z m0-333a42 42 0 1 1-41 41 42 42 0 0 1 41-41z m500 333a42 42 0 1 1-41 42 42 42 0 0 1 41-42z m-166-333a42 42 0 1 1-42 41 42 42 0 0 1 42-41z m-167 333a42 42 0 1 1-42 42 42 42 0 0 1 42-42z m167 0a42 42 0 1 1-42 42 42 42 0 0 1 42-42z m166-417a42 42 0 1 1 42-41 42 42 0 0 1-42 41z m0 167a42 42 0 1 1 42-42 42 42 0 0 1-42 42z m0-333h-666a42 42 0 0 1 0-84h666a42 42 0 0 1 0 84z m0 500a42 42 0 1 1 42-42 42 42 0 0 1-42 42z m-666-250a42 42 0 1 1-42 41 42 42 0 0 1 42-41z m0 166a42 42 0 1 1-42 42 42 42 0 0 1 42-42z m0-333a42 42 0 1 1-42 41 42 42 0 0 1 42-41z m0 500a42 42 0 1 1-42 41 42 42 0 0 1 42-41z" horiz-adv-x="1000" />

<glyph glyph-name="border-clear" unicode="&#xe874;" d="M333 392a42 42 0 1 1 42-42 42 42 0 0 1-42 42z m0-334a42 42 0 1 1 42-41 42 42 0 0 1-42 41z m167 0a42 42 0 1 1 42-41 42 42 0 0 1-42 41z m-333 667a42 42 0 1 1 41-42 42 42 0 0 1-41 42z m0-333a42 42 0 1 1 41-42 42 42 0 0 1-41 42z m666 250a42 42 0 1 1-41 41 42 42 0 0 1 41-41z m-666-584a42 42 0 1 1 41-41 42 42 0 0 1-41 41z m333 167a42 42 0 1 1 42-42 42 42 0 0 1-42 42z m-333 0a42 42 0 1 1 41-42 42 42 0 0 1-41 42z m0 333a42 42 0 1 1 41-41 42 42 0 0 1-41 41z m166 167a42 42 0 1 1 42-42 42 42 0 0 1-42 42z m500-500a42 42 0 1 1 42-42 42 42 0 0 1-42 42z m0-167a42 42 0 1 1 42-41 42 42 0 0 1-42 41z m0 500a42 42 0 1 1 42-41 42 42 0 0 1-42 41z m-333-166a42 42 0 1 1 42-42 42 42 0 0 1-42 42z m333 0a42 42 0 1 1 42-42 42 42 0 0 1-42 42z m-166 333a42 42 0 1 1 41-42 42 42 0 0 1-41 42z m-167 0a42 42 0 1 1 42-42 42 42 0 0 1-42 42z m0-167a42 42 0 1 1 42-41 42 42 0 0 1-42 41z m167-500a42 42 0 1 1 41-41 42 42 0 0 1-41 41z m0 334a42 42 0 1 1 41-42 42 42 0 0 1-41 42z" horiz-adv-x="1000" />

<glyph glyph-name="border-horizontal" unicode="&#xe875;" d="M333 642a42 42 0 1 1-41 41 42 42 0 0 1 41-41z m-166-167a42 42 0 1 1-42 42 42 42 0 0 1 42-42z m333 0a42 42 0 1 1-42 42 42 42 0 0 1 42-42z m-333 167a42 42 0 1 1-42 41 42 42 0 0 1 42-41z m500 0a42 42 0 1 1-42 41 42 42 0 0 1 42-41z m-167 0a42 42 0 1 1-42 41 42 42 0 0 1 42-41z m333 0a42 42 0 1 1-41 41 42 42 0 0 1 41-41z m-666-584a42 42 0 1 1 41-41 42 42 0 0 1-41 41z m666 0a42 42 0 1 1 42-41 42 42 0 0 1-42 41z m0 167a42 42 0 1 1 42-42 42 42 0 0 1-42 42z m0 167h-666a42 42 0 0 1 0-84h666a42 42 0 0 1 0 84z m-166-334a42 42 0 1 1 41-41 42 42 0 0 1-41 41z m-500 167a42 42 0 1 1 41-42 42 42 0 0 1-41 42z m666 333a42 42 0 1 1 42-41 42 42 0 0 1-42 41z m-500-500a42 42 0 1 1 42-41 42 42 0 0 1-42 41z m167 0a42 42 0 1 1 42-41 42 42 0 0 1-42 41z m0 167a42 42 0 1 1 42-42 42 42 0 0 1-42 42z" horiz-adv-x="1000" />

<glyph glyph-name="border-inner" unicode="&#xe876;" d="M333 642a42 42 0 1 1-41 41 42 42 0 0 1 41-41z m-166-167a42 42 0 1 1-42 42 42 42 0 0 1 42-42z m0 167a42 42 0 1 1-42 41 42 42 0 0 1 42-41z m0-584a42 42 0 1 1 41-41 42 42 0 0 1-41 41z m666 584a42 42 0 1 1-41 41 42 42 0 0 1 41-41z m0-167a42 42 0 1 1-41 42 42 42 0 0 1 41-42z m-166 167a42 42 0 1 1-42 41 42 42 0 0 1 42-41z m166-584a42 42 0 1 1 42-41 42 42 0 0 1-42 41z m-666 167a42 42 0 1 1 41-42 42 42 0 0 1-41 42z m666 0a42 42 0 1 1 42-42 42 42 0 0 1-42 42z m-166-167a42 42 0 1 1 41-41 42 42 0 0 1-41 41z m208 292a42 42 0 0 1-42 42h-291v291a42 42 0 0 1-84 0v-291h-291a42 42 0 0 1 0-84h291v-291a42 42 0 0 1 84 0v291h291a42 42 0 0 1 42 42z m-542-292a42 42 0 1 1 42-41 42 42 0 0 1-42 41z" horiz-adv-x="1000" />

<glyph glyph-name="border-left" unicode="&#xe877;" d="M479 58a42 42 0 1 1 42-41 42 42 0 0 1-42 41z m0 167a42 42 0 1 1 42-42 42 42 0 0 1-42 42z m0 167a42 42 0 1 1 42-42 42 42 0 0 1-42 42z m-333 333a42 42 0 0 1-42-42v-666a42 42 0 0 1 84 0v666a42 42 0 0 1-42 42z m667-83a42 42 0 1 1-42 41 42 42 0 0 1 42-41z m-334-84a42 42 0 1 1 42-41 42 42 0 0 1-42 41z m-166-166a42 42 0 1 1 41-42 42 42 0 0 1-41 42z m0-334a42 42 0 1 1 41-41 42 42 0 0 1-41 41z m0 667a42 42 0 1 1 41-42 42 42 0 0 1-41 42z m500-333a42 42 0 1 1 41-42 42 42 0 0 1-41 42z m0-167a42 42 0 1 1 41-42 42 42 0 0 1-41 42z m-334 500a42 42 0 1 1 42-42 42 42 0 0 1-42 42z m334-667a42 42 0 1 1 41-41 42 42 0 0 1-41 41z m0 500a42 42 0 1 1 41-41 42 42 0 0 1-41 41z m-167 167a42 42 0 1 1 42-42 42 42 0 0 1-42 42z m0-667a42 42 0 1 1 42-41 42 42 0 0 1-42 41z m0 334a42 42 0 1 1 42-42 42 42 0 0 1-42 42z" horiz-adv-x="1000" />

<glyph glyph-name="border-out" unicode="&#xe878;" d="M500 475a42 42 0 1 1-42 42 42 42 0 0 1 42-42z m0-167a42 42 0 1 1-42 42 42 42 0 0 1 42-42z m167 0a42 42 0 1 1-42 42 42 42 0 0 1 42-42z m-167-166a42 42 0 1 1-42 41 42 42 0 0 1 42-41z m333 583h-666a42 42 0 0 1-42-42v-666a42 42 0 0 1 42-42h666a42 42 0 0 1 42 42v666a42 42 0 0 1-42 42z m-41-667h-584v584h584z m-459 250a42 42 0 1 1-41 42 42 42 0 0 1 41-42z" horiz-adv-x="1000" />

<glyph glyph-name="border-right" unicode="&#xe879;" d="M188 558a42 42 0 1 1 41-41 42 42 0 0 1-41 41z m0 167a42 42 0 1 1 41-42 42 42 0 0 1-41 42z m166-667a42 42 0 1 1 42-41 42 42 0 0 1-42 41z m-167 0a42 42 0 1 1 42-41 42 42 0 0 1-42 41z m167 334a42 42 0 1 1 42-42 42 42 0 0 1-42 42z m0 333a42 42 0 1 1 42-42 42 42 0 0 1-42 42z m-167-333a42 42 0 1 1 42-42 42 42 0 0 1-42 42z m0-167a42 42 0 1 1 42-42 42 42 0 0 1-42 42z m501 500a42 42 0 1 1 41-42 42 42 0 0 1-41 42z m0-333a42 42 0 1 1 41-42 42 42 0 0 1-41 42z m-167-334a42 42 0 1 1 42-41 42 42 0 0 1-42 41z m0 667a42 42 0 1 1 42-42 42 42 0 0 1-42 42z m333 0a42 42 0 0 1-41-42v-666a42 42 0 0 1 83 0v666a42 42 0 0 1-42 42z m-166-667a42 42 0 1 1 41-41 42 42 0 0 1-41 41z m-167 500a42 42 0 1 1 42-41 42 42 0 0 1-42 41z m0-333a42 42 0 1 1 42-42 42 42 0 0 1-42 42z m0 167a42 42 0 1 1 42-42 42 42 0 0 1-42 42z" horiz-adv-x="1000" />

<glyph glyph-name="border-top" unicode="&#xe87a;" d="M333 79a42 42 0 1 1 42-41 42 42 0 0 1-42 41z m0 334a42 42 0 1 1 42-42 42 42 0 0 1-42 42z m167-334a42 42 0 1 1 42-41 42 42 0 0 1-42 41z m-333 500a42 42 0 1 1 41-41 42 42 0 0 1-41 41z m0-500a42 42 0 1 1 41-41 42 42 0 0 1-41 41z m0 584h666a42 42 0 0 1 0 83h-666a42 42 0 0 1 0-83z m0-417a42 42 0 1 1 41-42 42 42 0 0 1-41 42z m0 167a42 42 0 1 1 41-42 42 42 0 0 1-41 42z m333 166a42 42 0 1 1 42-41 42 42 0 0 1-42 41z m333-333a42 42 0 1 1 42-42 42 42 0 0 1-42 42z m0-167a42 42 0 1 1 42-41 42 42 0 0 1-42 41z m-333 167a42 42 0 1 1 42-42 42 42 0 0 1-42 42z m333 333a42 42 0 1 1 42-42 42 42 0 0 1-42 42z m0-167a42 42 0 1 1 42-41 42 42 0 0 1-42 41z m-333 0a42 42 0 1 1 42-41 42 42 0 0 1-42 41z m167 0a42 42 0 1 1 41-41 42 42 0 0 1-41 41z m0-333a42 42 0 1 1 41-42 42 42 0 0 1-41 42z" horiz-adv-x="1000" />

<glyph glyph-name="border-vertical" unicode="&#xe87b;" d="M125 725a42 42 0 1 1 42-42 42 42 0 0 1-42 42z m0-167a42 42 0 1 1 42-41 42 42 0 0 1-42 41z m667 84a42 42 0 1 1-42 41 42 42 0 0 1 42-41z m-500-250a42 42 0 1 1 41-42 42 42 0 0 1-41 42z m0-334a42 42 0 1 1 41-41 42 42 0 0 1-41 41z m0 667a42 42 0 1 1 41-42 42 42 0 0 1-41 42z m-167-500a42 42 0 1 1 42-42 42 42 0 0 1-42 42z m0 167a42 42 0 1 1 42-42 42 42 0 0 1-42 42z m0-334a42 42 0 1 1 42-41 42 42 0 0 1-42 41z m667 167a42 42 0 1 1 41-42 42 42 0 0 1-41 42z m0 167a42 42 0 1 1 41-42 42 42 0 0 1-41 42z m0-334a42 42 0 1 1 41-41 42 42 0 0 1-41 41z m0 500a42 42 0 1 1 41-41 42 42 0 0 1-41 41z m-167 167a42 42 0 1 1 42-42 42 42 0 0 1-42 42z m-167 0a42 42 0 0 1-41-42v-666a42 42 0 0 1 83 0v666a42 42 0 0 1-42 42z m167-667a42 42 0 1 1 42-41 42 42 0 0 1-42 41z m0 334a42 42 0 1 1 42-42 42 42 0 0 1-42 42z" horiz-adv-x="1000" />

<glyph glyph-name="box" unicode="&#xe87c;" d="M854 537a8 8 0 0 0 0 3 7 7 0 0 0 0 3v4l-3 6a20 20 0 0 1-4 5l-3 3h-2l-165 104-155 95a35 35 0 0 1-12 7h-3a34 34 0 0 1-11 0h-4a47 47 0 0 1-14-6l-311-193-4-3-4-4-4-3-2-2-3-6v-7a29 29 0 0 1 0-8v-364a42 42 0 0 1 20-35l313-194 6-2h3a36 36 0 0 1 22 0h3l6 2 310 191a42 42 0 0 1 20 35v364s1 3 1 5z m-354 139l74-46-233-144-74 46z m-42-625l-229 140v267l229-142z m42 338l-80 48 233 145 80-50z m271-196l-229-143v266l229 142z" horiz-adv-x="1000" />

<glyph glyph-name="briefcase-alt" unicode="&#xe87d;" d="M792 579h-125v42a125 125 0 0 1-125 125h-84a125 125 0 0 1-125-125v-42h-125a125 125 0 0 1-125-125v-375a125 125 0 0 1 125-125h584a125 125 0 0 1 125 125v375a125 125 0 0 1-125 125z m-375 42a42 42 0 0 0 41 42h84a42 42 0 0 0 41-42v-42h-166z m416-542a42 42 0 0 0-41-41h-584a42 42 0 0 0-41 41v229a886 886 0 0 1 125-39v-24a42 42 0 0 1 83 0v8a958 958 0 0 1 125-8 958 958 0 0 1 125 8v-8a42 42 0 0 1 83 0v24a886 886 0 0 1 125 39z m0 321a850 850 0 0 0-125-42v13a42 42 0 0 1-83 0v-31a838 838 0 0 0-250 0v31a42 42 0 0 1-83 0v-14a850 850 0 0 0-125 42v55a42 42 0 0 0 41 42h584a42 42 0 0 0 41-42z" horiz-adv-x="1000" />

<glyph glyph-name="briefcase" unicode="&#xe87e;" d="M875 600h-167v42a125 125 0 0 1-125 125h-166a125 125 0 0 1-125-125v-42h-167a42 42 0 0 1-42-42v-166a125 125 0 0 1 42-93v-241a125 125 0 0 1 125-125h500a125 125 0 0 1 125 125v241a125 125 0 0 1 42 93v166a42 42 0 0 1-42 42z m-500 42a42 42 0 0 0 42 41h166a42 42 0 0 0 42-41v-42h-250z m417-584a42 42 0 0 0-42-41h-500a42 42 0 0 0-42 41v209h84v-42a42 42 0 0 1 83 0v42h250v-42a42 42 0 0 1 83 0v42h84z m41 334a42 42 0 0 0-41-42h-84v42a42 42 0 0 1-83 0v-42h-250v42a42 42 0 0 1-83 0v-42h-84a42 42 0 0 0-41 42v125h666z" horiz-adv-x="1000" />

<glyph glyph-name="bright" unicode="&#xe87f;" d="M500 517a167 167 0 1 1 167-167 167 167 0 0 1-167 167z m0-250a83 83 0 1 0 83 83 83 83 0 0 0-83-83z m405 113l-98 95v140a42 42 0 0 1-42 42h-138l-97 98a42 42 0 0 1-60 0l-95-98h-140a42 42 0 0 1-42-42v-140l-98-95a42 42 0 0 1 0-60l98-97v-138a42 42 0 0 1 42-42h140l98-98a42 42 0 0 1 59 0l97 98h138a42 42 0 0 1 42 42v138l98 97a42 42 0 0 1-2 60z m-169-110a42 42 0 0 1-13-30v-113h-113a42 42 0 0 1-30-13l-80-80-80 80a42 42 0 0 1-30 13h-113v113a42 42 0 0 1-13 30l-80 80 80 80a42 42 0 0 1 13 30v113h113a42 42 0 0 1 30 13l80 80 80-80a42 42 0 0 1 30-13h113v-113a42 42 0 0 1 13-30l80-80z" horiz-adv-x="1000" />

<glyph glyph-name="brightness-empty" unicode="&#xe880;" d="M905 380l-98 95v140a42 42 0 0 1-42 42h-138l-97 98a42 42 0 0 1-60 0l-95-98h-140a42 42 0 0 1-42-42v-140l-98-95a42 42 0 0 1 0-60l98-97v-138a42 42 0 0 1 42-42h140l98-98a42 42 0 0 1 59 0l97 98h138a42 42 0 0 1 42 42v138l98 97a42 42 0 0 1-2 60z m-169-110a42 42 0 0 1-13-30v-113h-113a42 42 0 0 1-30-13l-80-80-80 80a42 42 0 0 1-30 13h-113v113a42 42 0 0 1-13 30l-80 80 80 80a42 42 0 0 1 13 30v113h113a42 42 0 0 1 30 13l80 80 80-80a42 42 0 0 1 30-13h113v-113a42 42 0 0 1 13-30l80-80z" horiz-adv-x="1000" />

<glyph glyph-name="brightness-half" unicode="&#xe881;" d="M500 517a42 42 0 0 1 0-84 83 83 0 0 0 0-166 42 42 0 0 1 0-84 167 167 0 0 1 0 334z m405-137l-98 95v140a42 42 0 0 1-42 42h-138l-97 98a42 42 0 0 1-60 0l-95-98h-140a42 42 0 0 1-42-42v-140l-98-95a42 42 0 0 1 0-60l98-97v-138a42 42 0 0 1 42-42h140l98-98a42 42 0 0 1 59 0l97 98h138a42 42 0 0 1 42 42v138l98 97a42 42 0 0 1-2 60z m-169-110a42 42 0 0 1-13-30v-113h-113a42 42 0 0 1-30-13l-80-80-80 80a42 42 0 0 1-30 13h-113v113a42 42 0 0 1-13 30l-80 80 80 80a42 42 0 0 1 13 30v113h113a42 42 0 0 1 30 13l80 80 80-80a42 42 0 0 1 30-13h113v-113a42 42 0 0 1 13-30l80-80z" horiz-adv-x="1000" />

<glyph glyph-name="brightness-low" unicode="&#xe882;" d="M125 392a42 42 0 1 1 42-42 42 42 0 0 1-42 42z m80-278a42 42 0 1 1 59 0 42 42 0 0 1-59 0z m59 472a42 42 0 1 1-59 0 42 42 0 0 1 59 0z m236 97a42 42 0 1 1-42 42 42 42 0 0 1 42-42z m236-569a42 42 0 1 1 59 0 42 42 0 0 1-59 0z m139 278a42 42 0 1 1 42-42 42 42 0 0 1-42 42z m-139 253a42 42 0 1 1 59 0 42 42 0 0 1-59 0z m-236-628a42 42 0 1 1 42-42 42 42 0 0 1-42 42z m0 583a250 250 0 1 1 250-250 250 250 0 0 1-250 250z m0-417a167 167 0 1 0 167 167 167 167 0 0 0-167-167z" horiz-adv-x="1000" />

<glyph glyph-name="brightness-minus" unicode="&#xe883;" d="M583 392h-166a42 42 0 0 1 0-84h166a42 42 0 0 1 0 84z m322-12l-98 95v140a42 42 0 0 1-42 42h-138l-97 98a42 42 0 0 1-60 0l-95-98h-140a42 42 0 0 1-42-42v-140l-98-95a42 42 0 0 1 0-60l98-97v-138a42 42 0 0 1 42-42h140l98-98a42 42 0 0 1 59 0l97 98h138a42 42 0 0 1 42 42v138l98 97a42 42 0 0 1-2 60z m-169-110a42 42 0 0 1-13-30v-113h-113a42 42 0 0 1-30-13l-80-80-80 80a42 42 0 0 1-30 13h-113v113a42 42 0 0 1-13 30l-80 80 80 80a42 42 0 0 1 13 30v113h113a42 42 0 0 1 30 13l80 80 80-80a42 42 0 0 1 30-13h113v-113a42 42 0 0 1 13-30l80-80z" horiz-adv-x="1000" />

<glyph glyph-name="brightness-plus" unicode="&#xe884;" d="M583 392h-41v41a42 42 0 0 1-84 0v-41h-41a42 42 0 0 1 0-84h41v-41a42 42 0 0 1 84 0v41h41a42 42 0 0 1 0 84z m322-12l-98 95v140a42 42 0 0 1-42 42h-138l-97 98a42 42 0 0 1-60 0l-95-98h-140a42 42 0 0 1-42-42v-140l-98-95a42 42 0 0 1 0-60l98-97v-138a42 42 0 0 1 42-42h140l98-98a42 42 0 0 1 59 0l97 98h138a42 42 0 0 1 42 42v138l98 97a42 42 0 0 1-2 60z m-169-110a42 42 0 0 1-13-30v-113h-113a42 42 0 0 1-30-13l-80-80-80 80a42 42 0 0 1-30 13h-113v113a42 42 0 0 1-13 30l-80 80 80 80a42 42 0 0 1 13 30v113h113a42 42 0 0 1 30 13l80 80 80-80a42 42 0 0 1 30-13h113v-113a42 42 0 0 1 13-30l80-80z" horiz-adv-x="1000" />

<glyph glyph-name="brightness" unicode="&#xe885;" d="M208 350a42 42 0 0 1-41 42h-42a42 42 0 0 1 0-84h42a42 42 0 0 1 41 42z m27-208l-30-30a42 42 0 0 1 0-59 42 42 0 0 1 59 0l30 30a42 42 0 0 1-59 59z m265 500a42 42 0 0 1 42 41v42a42 42 0 0 1-84 0v-42a42 42 0 0 1 42-41z m236-98a42 42 0 0 1 29 12l30 30a42 42 0 1 1-59 59l-28-30a42 42 0 0 1 0-59 42 42 0 0 1 28-12z m-500 12a42 42 0 0 1 29-12 42 42 0 0 1 30 12 42 42 0 0 1 0 59l-30 30a42 42 0 0 1-60-59z m639-164h-42a42 42 0 0 1 0-84h42a42 42 0 0 1 0 84z m-110-250a42 42 0 0 1-57-57l30-30a42 42 0 0 1 59 0 42 42 0 0 1 0 59z m-265 437a229 229 0 1 1 229-229 230 230 0 0 1-229 229z m0-375a146 146 0 1 0 146 146 146 146 0 0 0-146-146z m0-146a42 42 0 0 1-42-41v-42a42 42 0 0 1 84 0v42a42 42 0 0 1-42 41z" horiz-adv-x="1000" />

<glyph glyph-name="bring-bottom" unicode="&#xe886;" d="M875 267h-83a42 42 0 1 1 0-84h41v-166h-666v166h291a42 42 0 0 1 0 84h-41v208a42 42 0 0 1-42 42h-250a42 42 0 0 1-42-42v-500a42 42 0 0 1 42-42h750a42 42 0 0 1 42 42v250a42 42 0 0 1-42 42z m-708 166h166v-166h-166z m363 138l53 54v-483a42 42 0 1 1 84 0v483l53-54a42 42 0 0 1 30-13 42 42 0 0 1 30 12 42 42 0 0 1 0 59l-125 125a42 42 0 0 1-60 0l-125-125a42 42 0 0 1 0-59 42 42 0 0 1 60 1z" horiz-adv-x="1000" />

<glyph glyph-name="bring-front" unicode="&#xe887;" d="M470 129l-53-54v483a42 42 0 0 1-84 0v-483l-53 54a42 42 0 0 1-60 0 42 42 0 0 1 0-59l125-125a42 42 0 0 1 60 0l125 125a42 42 0 0 1 0 59 42 42 0 0 1-60 0z m447 596a42 42 0 0 1-42 42h-750a42 42 0 0 1-42-42v-250a42 42 0 0 1 42-42h83a42 42 0 0 1 0 84h-41v166h666v-166h-291a42 42 0 0 1 0-84h41v-208a42 42 0 0 1 42-42h250a42 42 0 0 1 42 42v250z m-84-458h-166v166h166z" horiz-adv-x="1000" />

<glyph glyph-name="brush-alt" unicode="&#xe888;" d="M500 100a42 42 0 1 1 42-42 42 42 0 0 1-42 42z m250 708h-500a42 42 0 0 1-42-41v-375a125 125 0 0 1 125-125h42v-99a167 167 0 1 1 250 0v99h42a125 125 0 0 1 125 125v375a42 42 0 0 1-42 41z m-250-833a83 83 0 0 0-55 145 42 42 0 0 1 13 31v116h84v-116a42 42 0 0 1 13-31 83 83 0 0 0-55-145z m208 417a42 42 0 0 0-41-42h-334a42 42 0 0 0-41 42v41h416z m0 125h-416v208h416z" horiz-adv-x="1000" />

<glyph glyph-name="bug" unicode="&#xe889;" d="M792 267h83a42 42 0 0 1 0 83h-83v42a215 215 0 0 1-9 56 208 208 0 0 1 134 194 42 42 0 0 1-84 0 125 125 0 0 0-89-120 208 208 0 0 1-77 61 108 108 0 0 1 0 17 167 167 0 0 1-334 0 108 108 0 0 1 0-17 208 208 0 0 1-79-61 125 125 0 0 0-87 120 42 42 0 0 1-84 0 208 208 0 0 1 134-194 215 215 0 0 1-9-56v-42h-83a42 42 0 0 1 0-83h83v-42a292 292 0 0 1 6-57 208 208 0 0 1-131-193 42 42 0 0 1 84 0 125 125 0 0 0 75 114 292 292 0 0 1 516 0 125 125 0 0 0 75-114 42 42 0 0 1 84 0 208 208 0 0 1-131 193 292 292 0 0 1 6 57z m-334-246a208 208 0 0 0-166 204v167a125 125 0 0 0 125 125h41z m-41 579a83 83 0 0 0 166 0z m291-375a208 208 0 0 0-166-204v496h41a125 125 0 0 0 125-125z" horiz-adv-x="1000" />

<glyph glyph-name="building" unicode="&#xe88a;" d="M583 517h42a42 42 0 0 1 0 83h-42a42 42 0 0 1 0-83z m0-167h42a42 42 0 0 1 0 83h-42a42 42 0 0 1 0-83z m-208 167h42a42 42 0 0 1 0 83h-42a42 42 0 0 1 0-83z m0-167h42a42 42 0 0 1 0 83h-42a42 42 0 0 1 0-83z m500-333h-42v708a42 42 0 0 1-41 42h-584a42 42 0 0 1-41-42v-708h-42a42 42 0 0 1 0-84h750a42 42 0 0 1 0 84z m-333 0h-84v166h84z m208 0h-125v208a42 42 0 0 1-42 42h-166a42 42 0 0 1-42-42v-208h-125v666h500z" horiz-adv-x="1000" />

<glyph glyph-name="bullseye" unicode="&#xe88b;" d="M500 642a292 292 0 1 1 292-292 292 292 0 0 1-292 292z m0-500a208 208 0 1 0 208 208 208 208 0 0 0-208-208z m0 333a125 125 0 1 1 125-125 125 125 0 0 1-125 125z m0-167a42 42 0 1 0 42 42 42 42 0 0 0-42-42z m0 500a458 458 0 1 1 458-458 458 458 0 0 1-458 458z m0-833a375 375 0 1 0 375 375 375 375 0 0 0-375-375z" horiz-adv-x="1000" />

<glyph glyph-name="bus-alt" unicode="&#xe88c;" d="M771 767h-500a125 125 0 0 1-125-125v-500a125 125 0 0 1 83-118v-49a42 42 0 0 1 83 0v42h417v-42a42 42 0 0 1 83 0v49a125 125 0 0 1 84 118v500a125 125 0 0 1-125 125z m-542-250h250v-167h-250z m583-375a42 42 0 0 0-41-42h-500a42 42 0 0 0-42 42v125h583z m0 208h-250v167h250z m0 250h-583v42a42 42 0 0 0 42 41h500a42 42 0 0 0 41-41z m-140-455a42 42 0 0 1 15-3 42 42 0 0 1 42 41 57 57 0 0 1 0 9 27 27 0 0 1-2 7 32 32 0 0 1-4 8 66 66 0 0 1-5 6l-6 5a32 32 0 0 1-8 4 27 27 0 0 1-8 3 42 42 0 0 1-38-11 66 66 0 0 1-5-6 32 32 0 0 1-4-8 27 27 0 0 1-2-7 57 57 0 0 1 0-9 42 42 0 0 1 12-29 42 42 0 0 1 13-10z m-334 0a42 42 0 0 1 16-3 42 42 0 0 1 42 41 57 57 0 0 1 0 9 27 27 0 0 1-3 7 32 32 0 0 1-3 8 66 66 0 0 1-5 6l-7 5-7 4-9 3a42 42 0 0 1-37-11 66 66 0 0 1-5-6 32 32 0 0 1-4-8 27 27 0 0 1-3-7 57 57 0 0 1 0-9 42 42 0 0 1 12-29 42 42 0 0 1 13-10z" horiz-adv-x="1000" />

<glyph glyph-name="bus-school" unicode="&#xe88d;" d="M42 329v-166a42 42 0 0 1 41-42h42a125 125 0 0 1 250 0h250a125 125 0 0 1 250 0h42a42 42 0 0 1 41 42v416a125 125 0 0 1-125 125h-481a125 125 0 0 1-119-85l-60-180-113-75a42 42 0 0 1-18-35z m833 125h-83v167h41a42 42 0 0 0 42-42z m-167-333a42 42 0 1 0 42-42 42 42 0 0 0-42 42z m-83 250h250v-167h-33a125 125 0 0 1-185 0h-32z m0 250h83v-167h-83z m-167-250h84v-167h-84z m0 250h84v-167h-84z m-83-167h-109l46 139a42 42 0 0 0 40 28h23z m-167-333a42 42 0 1 0 42-42 42 42 0 0 0-42 42z m-83 187l96 63h154v-167h-32a125 125 0 0 1-185 0h-33z" horiz-adv-x="1000" />

<glyph glyph-name="bus" unicode="&#xe88e;" d="M354 142a42 42 0 0 1 42 41 57 57 0 0 1 0 9 27 27 0 0 1-3 7 32 32 0 0 1-3 8l-5 6a42 42 0 0 1-14 9 42 42 0 0 1-25 3l-8-2-7-4a66 66 0 0 1-6-5l-5-6a32 32 0 0 1-4-8 27 27 0 0 1-3-7 57 57 0 0 1 0-9 42 42 0 0 1 42-41z m334 0a42 42 0 0 1 41 41 57 57 0 0 1 0 9 27 27 0 0 1-2 7 32 32 0 0 1-4 8l-5 6a48 48 0 0 1-14 9 42 42 0 0 1-31 0 48 48 0 0 1-14-9l-5-6a32 32 0 0 1-4-8 27 27 0 0 1-2-7 57 57 0 0 1 0-9 42 42 0 0 1 12-29 42 42 0 0 1 28-12z m-125 500h-84a42 42 0 0 1 0-84h84a42 42 0 0 1 0 84z m208 125h-500a125 125 0 0 1-125-125v-500a125 125 0 0 1 83-118v-49a42 42 0 0 1 83 0v42h417v-42a42 42 0 0 1 83 0v49a125 125 0 0 1 84 118v500a125 125 0 0 1-125 125z m41-625a42 42 0 0 0-41-42h-500a42 42 0 0 0-42 42v125h583z m0 208h-583v292a42 42 0 0 0 42 41h500a42 42 0 0 0 41-41z" horiz-adv-x="1000" />

<glyph glyph-name="calcualtor" unicode="&#xe88f;" d="M530 130a42 42 0 0 1-7 5 23 23 0 0 1-7 3 25 25 0 0 1-8 3 39 39 0 0 1-24-3 38 38 0 0 1-22-22 35 35 0 0 1-4-16 42 42 0 0 1 3-16 61 61 0 0 1 9-14 42 42 0 0 1 30-12 35 35 0 0 1 16 4 48 48 0 0 1 14 8 42 42 0 0 1 12 30 42 42 0 0 1-4 16 42 42 0 0 1-8 14z m-174 171a23 23 0 0 1-7 4 25 25 0 0 1-8 3 36 36 0 0 1-16 0l-7-2-8-4-6-5a44 44 0 0 1-12-30 42 42 0 0 1 12-30 48 48 0 0 1 13-9 42 42 0 0 1 58 39 44 44 0 0 1-12 29z m7-171a42 42 0 0 1-14 8 42 42 0 0 1-24 4l-7-3a32 32 0 0 1-8-4 66 66 0 0 1-6-5 42 42 0 0 1-9-13 39 39 0 0 1 0-32 48 48 0 0 1 9-14 42 42 0 0 1 29-13 35 35 0 0 1 16 4 48 48 0 0 1 14 8 48 48 0 0 1 9 14 39 39 0 0 1 0 32 42 42 0 0 1-9 14z m121 175a42 42 0 0 1-14-9 44 44 0 0 1-12-29 42 42 0 0 1 58-39 48 48 0 0 1 14 9 42 42 0 0 1 12 30 44 44 0 0 1-12 29 42 42 0 0 1-46 9z m212-175a48 48 0 0 1-13 8 42 42 0 0 1-46-8 42 42 0 0 1-9-14 39 39 0 0 1 0-32 48 48 0 0 1 9-14 42 42 0 0 1 30-12 35 35 0 0 1 16 4 48 48 0 0 1 13 8 42 42 0 0 1 9 46 42 42 0 0 1-9 14z m-29 512h-334a42 42 0 0 1-41-42v-167a42 42 0 0 1 41-41h334a42 42 0 0 1 41 41v167a42 42 0 0 1-41 42z m-42-167h-250v83h250z m125 333h-500a125 125 0 0 1-125-125v-666a125 125 0 0 1 125-125h500a125 125 0 0 1 125 125v666a125 125 0 0 1-125 125z m42-791a42 42 0 0 0-42-42h-500a42 42 0 0 0-42 42v666a42 42 0 0 0 42 42h500a42 42 0 0 0 42-42z m-102 284a23 23 0 0 1-8 4 25 25 0 0 1-7 3 36 36 0 0 1-17 0l-7-3-8-4-6-5a44 44 0 0 1-12-29 42 42 0 0 1 58-39 48 48 0 0 1 13 9 42 42 0 0 1 12 30 44 44 0 0 1-12 29z" horiz-adv-x="1000" />

<glyph glyph-name="calculator-alt" unicode="&#xe890;" d="M229 517h21v-21a42 42 0 0 1 83 0v21h21a42 42 0 0 1 0 83h-21v21a42 42 0 0 1-83 0v-21h-21a42 42 0 0 1 0-83z m-26-464a42 42 0 0 1 59 0l30 30 29-30a42 42 0 0 1 59 0 42 42 0 0 1 0 59l-30 30 30 29a42 42 0 0 1-59 59l-29-30-30 30a42 42 0 0 1-59-59l30-29-30-30a42 42 0 0 1 0-59z m630 755h-666a125 125 0 0 1-125-125v-666a125 125 0 0 1 125-125h666a125 125 0 0 1 125 125v666a125 125 0 0 1-125 125z m-375-833h-291a42 42 0 0 0-42 42v291h333z m0 417h-333v291a42 42 0 0 0 42 42h291z m417-375a42 42 0 0 0-42-42h-291v333h333z m0 375h-333v333h291a42 42 0 0 0 42-42z m-229-229h125a42 42 0 0 1 0 83h-125a42 42 0 0 1 0-83z m125 437h-125a42 42 0 0 1 0-83h125a42 42 0 0 1 0 83z m-125-562h125a42 42 0 0 1 0 83h-125a42 42 0 0 1 0-83z" horiz-adv-x="1000" />

<glyph glyph-name="calendar-alt" unicode="&#xe891;" d="M500 58a42 42 0 1 1-42 42 42 42 0 0 1 42-42z m208 0a42 42 0 1 1-41 42 42 42 0 0 1 41-42z m0 167a42 42 0 1 1-41 42 42 42 0 0 1 41-42z m-208 0a42 42 0 1 1-42 42 42 42 0 0 1 42-42z m292 500h-42v42a42 42 0 0 1-83 0v-42h-334v42a42 42 0 0 1-83 0v-42h-42a125 125 0 0 1-125-125v-583a125 125 0 0 1 125-125h584a125 125 0 0 1 125 125v583a125 125 0 0 1-125 125z m41-708a42 42 0 0 0-41-42h-584a42 42 0 0 0-41 42v375h666z m0 458h-666v125a42 42 0 0 0 41 42h42v-42a42 42 0 0 1 83 0v42h334v-42a42 42 0 0 1 83 0v42h42a42 42 0 0 0 41-42z m-541-250a42 42 0 1 1-42 42 42 42 0 0 1 42-42z m0-167a42 42 0 1 1-42 42 42 42 0 0 1 42-42z" horiz-adv-x="1000" />

<glyph glyph-name="calendar-slash" unicode="&#xe892;" d="M486 558h139v-41a42 42 0 0 1 83 0v41h42a42 42 0 0 0 42-41v-125h-56a42 42 0 0 1 0-84h56v-55a42 42 0 1 1 83 0v264a125 125 0 0 1-125 125h-42v41a42 42 0 0 1-83 0v-41h-139a42 42 0 0 1 0-84z m419-553l-67 66-683 684a42 42 0 0 1-60-60l80-79a125 125 0 0 1-50-99v-417a125 125 0 0 1 125-125h500a125 125 0 0 1 54 12l41-41a42 42 0 0 1 60 0 42 42 0 0 1 0 59z m-697 512a42 42 0 0 0 28 38l164-163h-192z m42-459a42 42 0 0 0-42 42v208h275l250-250z" horiz-adv-x="1000" />

<glyph glyph-name="calender" unicode="&#xe893;" d="M792 683h-84v42a42 42 0 0 1-83 0v-42h-250v42a42 42 0 0 1-83 0v-42h-84a125 125 0 0 1-125-125v-500a125 125 0 0 1 125-125h584a125 125 0 0 1 125 125v500a125 125 0 0 1-125 125z m41-625a42 42 0 0 0-41-41h-584a42 42 0 0 0-41 41v292h666z m0 375h-666v125a42 42 0 0 0 41 42h84v-42a42 42 0 0 1 83 0v42h250v-42a42 42 0 0 1 83 0v42h84a42 42 0 0 0 41-42z" horiz-adv-x="1000" />

<glyph glyph-name="calling" unicode="&#xe894;" d="M853 475a42 42 0 1 1-42 42 42 42 0 0 1 42-42z m-125 0a42 42 0 1 1-42 42 42 42 0 0 1 42-42z m-125 0a42 42 0 1 1-42 42 42 42 0 0 1 42-42z m185-167c-9 0-19 3-28 5a393 393 0 0 0-55 17 83 83 0 0 1-103-42l-9-19a520 520 0 0 0-111 84 535 535 0 0 0-84 110l19 12a83 83 0 0 1 41 103 430 430 0 0 0-16 55c-2 10-4 19-5 28a125 125 0 0 1-125 104h-125a125 125 0 0 1-93-42 125 125 0 0 1-31-99 792 792 0 0 1 687-687 107 107 0 0 1 16 0 125 125 0 0 1 125 125v125a125 125 0 0 1-103 121z m20-250a42 42 0 0 0-48-41 713 713 0 0 0-411 202 714 714 0 0 0-202 414 42 42 0 0 0 11 34 42 42 0 0 0 31 14h125a42 42 0 0 0 41-33q3-17 7-34a463 463 0 0 1 19-64l-59-27a42 42 0 0 1-20-56 604 604 0 0 1 292-292 42 42 0 0 1 31 0 42 42 0 0 1 24 22l26 58a570 570 0 0 1 66-19c11-2 22-4 34-6a42 42 0 0 0 32-42z" horiz-adv-x="1000" />

<glyph glyph-name="camera-plus" unicode="&#xe895;" d="M833 413a42 42 0 0 1-41-42v-292a42 42 0 0 0-42-41h-583a42 42 0 0 0-42 41v334a42 42 0 0 0 42 41h83a42 42 0 0 1 42 29l22 68a42 42 0 0 0 40 28h229a42 42 0 0 1 0 84h-231a125 125 0 0 1-119-86l-13-42h-53a125 125 0 0 1-125-125v-333a125 125 0 0 1 125-125h583a125 125 0 0 1 125 125v292a42 42 0 0 1-42 44z m-375 41a167 167 0 1 1 167-166 167 167 0 0 1-167 166z m0-250a83 83 0 1 0 84 84 83 83 0 0 0-84-84z m459 459h-42v41a42 42 0 0 1-83 0v-41h-42a42 42 0 0 1 0-84h42v-41a42 42 0 0 1 83 0v41h42a42 42 0 0 1 0 84z" horiz-adv-x="1000" />

<glyph glyph-name="camera-slash" unicode="&#xe896;" d="M155 755a42 42 0 0 1-60-60l117-116h-4a125 125 0 0 1-125-125v-333a125 125 0 0 1 125-125h587l50-51a42 42 0 0 1 60 0 42 42 0 0 1 0 59z m270-389l112-112a83 83 0 0 0-37-8 83 83 0 0 0-83 83 83 83 0 0 0 8 37z m-217-287a42 42 0 0 0-41 42v333a42 42 0 0 0 41 42h87l70-71a163 163 0 0 1-32-96 167 167 0 0 1 167-166 163 163 0 0 1 97 32l115-116z m584 500h-54l-13 42a125 125 0 0 1-118 83h-184a42 42 0 0 1 0-83h184a42 42 0 0 0 39-28l23-68a42 42 0 0 1 39-29h84a42 42 0 0 0 41-42v-243a42 42 0 1 1 84 0v243a125 125 0 0 1-125 125z" horiz-adv-x="1000" />

<glyph glyph-name="camera" unicode="&#xe897;" d="M792 579h-54l-13 42a125 125 0 0 1-118 83h-214a125 125 0 0 1-118-85l-13-42h-54a125 125 0 0 1-125-125v-333a125 125 0 0 1 125-125h584a125 125 0 0 1 125 125v333a125 125 0 0 1-125 127z m41-458a42 42 0 0 0-41-42h-584a42 42 0 0 0-41 42v333a42 42 0 0 0 41 42h84a42 42 0 0 1 41 28l23 69a42 42 0 0 0 39 28h214a42 42 0 0 0 39-28l23-69a42 42 0 0 1 37-28h84a42 42 0 0 0 41-42z m-333 375a167 167 0 1 1 167-167 167 167 0 0 1-167 167z m0-250a83 83 0 1 0 83 83 83 83 0 0 0-83-83z" horiz-adv-x="1000" />

<glyph glyph-name="cancel" unicode="&#xe898;" d="M907 377l-208 250a42 42 0 0 1-32 15h-459a125 125 0 0 1-125-125v-334a125 125 0 0 1 125-125h459a42 42 0 0 1 32 15l208 250a42 42 0 0 1 0 54z m-260-235h-439a42 42 0 0 0-41 41v334a42 42 0 0 0 41 41h439l174-208z m-117 321a42 42 0 0 1-60 0l-53-54-54 54a42 42 0 1 1-59-59l54-54-54-54a42 42 0 0 1 0-59 42 42 0 0 1 59 0l54 54 53-54a42 42 0 0 1 60 0 42 42 0 0 1 0 59l-55 54 55 54a42 42 0 0 1 0 59z" horiz-adv-x="1000" />

<glyph glyph-name="capsule" unicode="&#xe899;" d="M813 663a213 213 0 0 1-302 0l-323-324a213 213 0 1 1 301-301l324 323a213 213 0 0 1 0 302z m-383-567a134 134 0 0 0-184 0 130 130 0 0 0 0 184l133 133 184-184z m324 324l-133-132-183 183 132 133a130 130 0 0 0 184-184z" horiz-adv-x="1000" />

<glyph glyph-name="capture" unicode="&#xe89a;" d="M125 475a42 42 0 0 1 42 42v125a42 42 0 0 0 41 41h125a42 42 0 0 1 0 84h-125a125 125 0 0 1-125-125v-125a42 42 0 0 1 42-42z m208-458h-125a42 42 0 0 0-41 41v125a42 42 0 0 1-84 0v-125a125 125 0 0 1 125-125h125a42 42 0 0 1 0 84z m167 500a167 167 0 1 1 167-167 167 167 0 0 1-167 167z m0-250a83 83 0 1 0 83 83 83 83 0 0 0-83-83z m292 500h-125a42 42 0 0 1 0-84h125a42 42 0 0 0 41-41v-125a42 42 0 0 1 84 0v125a125 125 0 0 1-125 125z m83-542a42 42 0 0 1-42-42v-125a42 42 0 0 0-41-41h-125a42 42 0 0 1 0-84h125a125 125 0 0 1 125 125v125a42 42 0 0 1-42 42z" horiz-adv-x="1000" />

<glyph glyph-name="car-sideview" unicode="&#xe89b;" d="M792 454h-14l-52 130a125 125 0 0 1-116 79h-250a125 125 0 0 1-122-101l-22-108h-8a125 125 0 0 1-125-125v-125a42 42 0 0 1 42-41h42a125 125 0 0 1 250 0h166a125 125 0 0 1 250 0h42a42 42 0 0 1 42 41v125a125 125 0 0 1-125 125z m-250 125h68a42 42 0 0 0 39-26l39-99h-146z m-223-33a42 42 0 0 0 42 33h97v-125h-157z m-27-425a42 42 0 1 0 41 42 42 42 0 0 0-41-42z m416 0a42 42 0 1 0 42 42 42 42 0 0 0-42-42z m125 125h-32a125 125 0 0 1-185 0h-232a125 125 0 0 1-185 0h-32v83a42 42 0 0 0 41 42h584a42 42 0 0 0 41-42z" horiz-adv-x="1000" />

<glyph glyph-name="car-slash" unicode="&#xe89c;" d="M292 308a42 42 0 1 1 41-41 42 42 0 0 1-41 41z m531 162l-56 170a125 125 0 0 1-119 83h-246a42 42 0 0 1 0-83h246a42 42 0 0 0 42-29l44-136h-82a42 42 0 0 1 0-83h140a42 42 0 0 0 41-42v-139a42 42 0 1 1 84 0v139a125 125 0 0 1-94 120z m-666 285a42 42 0 0 1-62-60l118-117-36-108a125 125 0 0 1-94-120v-167a125 125 0 0 1 84-117v-49a42 42 0 0 1 83 0v41h483l17-17v-24a42 42 0 0 1 42-42 38 38 0 0 1 19 5l34-35a42 42 0 0 1 60 0 42 42 0 0 1 0 60z m125-242l37-38h-53z m-74-371a42 42 0 0 0-41 41v167a42 42 0 0 0 41 42h192l83-84h-25a42 42 0 0 1 0-83h84a38 38 0 0 1 19 5l89-88z" horiz-adv-x="1000" />

<glyph glyph-name="car-wash" unicode="&#xe89d;" d="M313 683a42 42 0 0 1 29 12l42 42a42 42 0 0 1-59 59l-42-41a42 42 0 0 1 0-60 42 42 0 0 1 30-12z m166 0a42 42 0 0 1 30 12l41 42a42 42 0 1 1-59 59l-41-41a42 42 0 0 1 0-60 42 42 0 0 1 29-12z m167 0a42 42 0 0 1 29 12l42 42a42 42 0 1 1-59 59l-42-41a42 42 0 0 1 0-60 42 42 0 0 1 30-12z m101-484a32 32 0 0 1-4 8l-5 6-6 5a32 32 0 0 1-8 4 25 25 0 0 1-8 2 42 42 0 0 1-37-11 66 66 0 0 1-5-6 32 32 0 0 1-4-8 27 27 0 0 1-2-7 57 57 0 0 1 0-9 42 42 0 0 1 12-29 38 38 0 0 1 13-9 42 42 0 0 1 15-3 42 42 0 0 1 42 41 57 57 0 0 1 0 9 27 27 0 0 1-3 7z m76 188l-56 169a125 125 0 0 1-119 84h-296a125 125 0 0 1-119-84l-56-169a125 125 0 0 1-94-120v-167a125 125 0 0 1 84-117v-50a42 42 0 0 1 83 0v42h500v-42a42 42 0 0 1 83 0v49a125 125 0 0 1 84 118v167a125 125 0 0 1-94 120z m-511 143a42 42 0 0 0 40 28h296a42 42 0 0 0 42-28l44-138h-468z m521-430a42 42 0 0 0-41-42h-584a42 42 0 0 0-41 42v167a42 42 0 0 0 41 41h584a42 42 0 0 0 41-41z m-291 125h-84a42 42 0 0 1 0-83h84a42 42 0 0 1 0 83z m-212-26a32 32 0 0 1-4 8l-5 6a42 42 0 0 1-45 9 42 42 0 0 1-14-9 66 66 0 0 1-5-6 32 32 0 0 1-4-8 27 27 0 0 1-3-7 57 57 0 0 1 0-9 42 42 0 0 1 71-29 42 42 0 0 1 12 29 57 57 0 0 1 0 9 27 27 0 0 1-3 7z" horiz-adv-x="1000" />

<glyph glyph-name="car" unicode="&#xe89e;" d="M276 305a38 38 0 0 1-23-22 42 42 0 0 1 55-55 48 48 0 0 1 13 9 48 48 0 0 1 9 14 35 35 0 0 1 3 16 44 44 0 0 1-12 29 42 42 0 0 1-45 9z m547 167l-56 168a125 125 0 0 1-119 83h-296a125 125 0 0 1-119-83l-56-170a125 125 0 0 1-94-120v-167a125 125 0 0 1 84-117v-49a42 42 0 0 1 83 0v41h500v-41a42 42 0 0 1 83 0v49a125 125 0 0 1 84 117v167a125 125 0 0 1-94 120z m-511 141a42 42 0 0 0 40 29h296a42 42 0 0 0 42-29l44-138h-468z m521-430a42 42 0 0 0-41-41h-584a42 42 0 0 0-41 41v167a42 42 0 0 0 41 42h584a42 42 0 0 0 41-42z m-140 122a38 38 0 0 1-23-22 42 42 0 0 1 54-55 38 38 0 0 1 23 23 35 35 0 0 1 3 16 44 44 0 0 1-12 29 42 42 0 0 1-45 9z m-151 3h-84a42 42 0 0 1 0-83h84a42 42 0 0 1 0 83z" horiz-adv-x="1000" />

<glyph glyph-name="card-atm" unicode="&#xe89f;" d="M792 663h-584a125 125 0 0 1-125-125v-375a125 125 0 0 1 125-125h584a125 125 0 0 1 125 125v375a125 125 0 0 1-125 125z m41-500a42 42 0 0 0-41-42h-584a42 42 0 0 0-41 42v375a42 42 0 0 0 41 41h584a42 42 0 0 0 41-41z m-166 250a125 125 0 0 1-63-18 125 125 0 1 1 0-215 125 125 0 1 1 63 233z m-118-167a42 42 0 0 0-7 0 42 42 0 0 0 0 83 42 42 0 0 0 7 0 117 117 0 0 1 0-80z m118 0a42 42 0 1 0 41 42 42 42 0 0 0-41-42z" horiz-adv-x="1000" />

<glyph glyph-name="caret-right" unicode="&#xe8a0;" d="M813 386l-584 337a42 42 0 0 1-41 0 42 42 0 0 1-21-36v-674a42 42 0 0 1 21-36 42 42 0 0 1 41 0l584 337a42 42 0 0 1 0 72z m-563-301v530l458-265z" horiz-adv-x="1000" />

<glyph glyph-name="cart" unicode="&#xe8a1;" d="M792 558h-125v42a167 167 0 0 1-334 0v-42h-125a42 42 0 0 1-41-41v-459a125 125 0 0 1 125-125h416a125 125 0 0 1 125 125v459a42 42 0 0 1-41 41z m-375 42a83 83 0 0 0 166 0v-42h-166z m333-542a42 42 0 0 0-42-41h-416a42 42 0 0 0-42 41v417h83v-42a42 42 0 0 1 84 0v42h166v-42a42 42 0 0 1 84 0v42h83z" horiz-adv-x="1000" />

<glyph glyph-name="cell" unicode="&#xe8a2;" d="M895 653l-187 107a42 42 0 0 1-41 0l-167-95-167 95a42 42 0 0 1-41 0l-187-107a42 42 0 0 1-22-36v-214a42 42 0 0 1 22-36l166-94v-190a42 42 0 0 1 22-36l187-107a42 42 0 0 1 42 0l186 107a42 42 0 0 1 22 36v190l166 94a42 42 0 0 1 21 36v214a42 42 0 0 1-22 36z m-728-225v166l146 84 145-84v-166l-145-84z m479-320l-146-84-146 84v166l146 83 146-83z m187 319l-145-83-146 83v167l146 84 145-84z" horiz-adv-x="1000" />

<glyph glyph-name="celsius" unicode="&#xe8a3;" d="M875 58h-250a125 125 0 0 0-125 125v334a125 125 0 0 0 125 125h250a42 42 0 0 1 0 83h-250a208 208 0 0 1-208-208v-334a208 208 0 0 1 208-208h250a42 42 0 0 1 0 83z m-667 667a125 125 0 1 1 125-125 125 125 0 0 1-125 125z m0-167a42 42 0 1 0 42 42 42 42 0 0 0-42-42z" horiz-adv-x="1000" />

<glyph glyph-name="chart-bar-alt" unicode="&#xe8a4;" d="M875 17h-708v83h125a42 42 0 0 1 0 83h-125v84h458a42 42 0 0 1 0 83h-458v83h291a42 42 0 0 1 0 84h-291v83h625a42 42 0 0 1 0 83h-625v42a42 42 0 0 1-84 0v-750a42 42 0 0 1 42-42h750a42 42 0 0 1 0 84z" horiz-adv-x="1000" />

<glyph glyph-name="chart-bar" unicode="&#xe8a5;" d="M875 17h-42v625a42 42 0 0 1-83 0v-625h-83v291a42 42 0 0 1-84 0v-291h-83v458a42 42 0 0 1-83 0v-458h-84v125a42 42 0 0 1-83 0v-125h-83v708a42 42 0 0 1-84 0v-750a42 42 0 0 1 42-42h750a42 42 0 0 1 0 84z" horiz-adv-x="1000" />

<glyph glyph-name="chart-down" unicode="&#xe8a6;" d="M875 392a42 42 0 0 1-42-42v-108l-262 263a42 42 0 0 1-59 0l-137-138-220 221a42 42 0 0 1-60-59l250-250a42 42 0 0 1 60 0l137 137 233-233h-108a42 42 0 0 1 0-83h208a42 42 0 0 1 16 3 42 42 0 0 1 22 23 42 42 0 0 1 4 16v208a42 42 0 0 1-42 42z" horiz-adv-x="1000" />

<glyph glyph-name="chart-growth-alt" unicode="&#xe8a7;" d="M875 17h-708v83h125a42 42 0 0 1 0 83h-125v84h291a42 42 0 0 1 0 83h-291v83h458a42 42 0 0 1 0 84h-458v83h625a42 42 0 0 1 0 83h-625v42a42 42 0 0 1-84 0v-750a42 42 0 0 1 42-42h750a42 42 0 0 1 0 84z" horiz-adv-x="1000" />

<glyph glyph-name="chart-growth" unicode="&#xe8a8;" d="M875 17h-42v625a42 42 0 0 1-83 0v-625h-83v458a42 42 0 0 1-84 0v-458h-83v291a42 42 0 0 1-83 0v-291h-84v125a42 42 0 0 1-83 0v-125h-83v708a42 42 0 0 1-84 0v-750a42 42 0 0 1 42-42h750a42 42 0 0 1 0 84z" horiz-adv-x="1000" />

<glyph glyph-name="chart-line" unicode="&#xe8a9;" d="M292 183a63 63 0 0 1 62 63 32 32 0 0 1 0 6l116 116h20l67-67v-3a63 63 0 1 1 125 0v3l151 153a63 63 0 1 1-62 63 32 32 0 0 1 0-7l-151-150h-6l-72 73a62 62 0 0 1-125 0l-125-125a63 63 0 0 1 0-125z m562-166h-708v708a42 42 0 0 1-83 0v-750a42 42 0 0 1 41-42h750a42 42 0 0 1 0 84z" horiz-adv-x="1000" />

<glyph glyph-name="chart-pie-alt" unicode="&#xe8aa;" d="M792 350h-292v292c0 25-17 41-42 41-208 0-375-166-375-375s167-375 375-375 375 167 375 375c0 25-16 42-41 42z m-292-329c-158-25-308 87-329 246-25 158 87 308 246 329v-288c0-25 16-41 41-41h288c-17-129-117-229-246-246z m125 746c-25 0-42-17-42-42v-250c0-25 17-42 42-42h250c25 0 42 17 42 42 0 163-129 292-292 292z m42-250v162c83-16 146-79 162-162h-162z" horiz-adv-x="1000" />

<glyph glyph-name="chart-pie" unicode="&#xe8ab;" d="M500 767a417 417 0 1 1 205-779h5a417 417 0 0 1-210 779z m42-87a333 333 0 0 0 288-288h-288z m-42-663a333 333 0 0 0-42 663v-330a45 45 0 0 1 3-15v-6l167-286a325 325 0 0 0-128-26z m201 68l-129 223h258a333 333 0 0 0-129-223z" horiz-adv-x="1000" />

<glyph glyph-name="chart" unicode="&#xe8ac;" d="M500 600a42 42 0 0 1-42-42v-416a42 42 0 0 1 84 0v416a42 42 0 0 1-42 42z m-208-250a42 42 0 0 1-42-42v-166a42 42 0 0 1 83 0v166a42 42 0 0 1-41 42z m416 83a42 42 0 0 1-41-41v-250a42 42 0 0 1 83 0v250a42 42 0 0 1-42 41z m84 334h-584a125 125 0 0 1-125-125v-584a125 125 0 0 1 125-125h584a125 125 0 0 1 125 125v584a125 125 0 0 1-125 125z m41-709a42 42 0 0 0-41-41h-584a42 42 0 0 0-41 41v584a42 42 0 0 0 41 41h584a42 42 0 0 0 41-41z" horiz-adv-x="1000" />

<glyph glyph-name="chat-bubble-user" unicode="&#xe8ad;" d="M608 379a135 135 0 0 1 29 84 137 137 0 0 1-274 0 135 135 0 0 1 30-84 208 208 0 0 1-84-96 42 42 0 1 1 77-33 125 125 0 0 0 114 76 125 125 0 0 0 115-76 42 42 0 0 1 38-25 45 45 0 0 1 16 3 42 42 0 0 1 22 55 208 208 0 0 1-83 96z m-108 31a54 54 0 1 0 54 53 54 54 0 0 0-54-53z m250 357h-500a125 125 0 0 1-125-125v-459a125 125 0 0 1 125-125h108l112-113a42 42 0 0 1 30-12 42 42 0 0 1 27 10l134 115h89a125 125 0 0 1 125 125v459a125 125 0 0 1-125 125z m42-584a42 42 0 0 0-42-41h-104a42 42 0 0 1-27-10l-117-100-97 98a42 42 0 0 1-30 12h-125a42 42 0 0 0-42 41v459a42 42 0 0 0 42 41h500a42 42 0 0 0 42-41z" horiz-adv-x="1000" />

<glyph glyph-name="chat-info" unicode="&#xe8ae;" d="M804 695a42 42 0 0 1 59 0 48 48 0 0 1 9 14 42 42 0 0 1 3 16 42 42 0 0 1-12 30l-6 5a32 32 0 0 1-8 3 42 42 0 0 1-45-8 42 42 0 0 1-12-30 42 42 0 0 1 3-16 48 48 0 0 1 9-14z m29-53a42 42 0 0 1-41-42v-167a42 42 0 0 1 83 0v167a42 42 0 0 1-42 42z m3-334a42 42 0 0 1-46-36 292 292 0 0 0-290-255h-233l27 26a42 42 0 0 1 0 59 292 292 0 0 0 206 498 288 288 0 0 0 145-39 42 42 0 0 1 42 72 368 368 0 0 1-187 50 375 375 0 0 1-292-609l-71-69a42 42 0 0 1-9-46 42 42 0 0 1 39-26h333a375 375 0 0 1 372 329 42 42 0 0 1-36 46z" horiz-adv-x="1000" />

<glyph glyph-name="chat" unicode="&#xe8af;" d="M750 767h-500a125 125 0 0 1-125-125v-459a125 125 0 0 1 125-125h108l112-113a42 42 0 0 1 30-12 42 42 0 0 1 27 10l134 115h89a125 125 0 0 1 125 125v459a125 125 0 0 1-125 125z m42-584a42 42 0 0 0-42-41h-104a42 42 0 0 1-27-10l-117-100-97 98a42 42 0 0 1-30 12h-125a42 42 0 0 0-42 41v459a42 42 0 0 0 42 41h500a42 42 0 0 0 42-41z" horiz-adv-x="1000" />

<glyph glyph-name="check-circle" unicode="&#xe8b0;" d="M613 484l-178-179-69 68a42 42 0 1 1-59-58l98-99a42 42 0 0 1 30-12 42 42 0 0 1 29 12l208 209a42 42 0 0 1 0 59 42 42 0 0 1-59 0z m-113 283a417 417 0 1 1 417-417 417 417 0 0 1-417 417z m0-750a333 333 0 1 0 333 333 333 333 0 0 0-333-333z" horiz-adv-x="1000" />

<glyph glyph-name="check-square" unicode="&#xe8b1;" d="M425 235a42 42 0 0 1 60 0l170 170a42 42 0 0 1-60 60l-140-141-50 51a42 42 0 0 1-60-60z m450 532h-750a42 42 0 0 1-42-42v-750a42 42 0 0 1 42-42h750a42 42 0 0 1 42 42v750a42 42 0 0 1-42 42z m-42-750h-666v666h666z" horiz-adv-x="1000" />

<glyph glyph-name="check" unicode="&#xe8b2;" d="M780 550a42 42 0 0 1-60 0l-310-311-130 131a42 42 0 1 1-60-62l160-160a42 42 0 0 1 60 0l340 340a42 42 0 0 1 0 62z" horiz-adv-x="1000" />

<glyph glyph-name="circle-layer" unicode="&#xe8b3;" d="M625 767a292 292 0 0 1-287-239 250 250 0 0 1-130-195 208 208 0 1 1 275-275 250 250 0 0 1 195 129 292 292 0 0 1-53 580z m-208-643c0-4 0-9-3-13a125 125 0 1 0-152 152l12 4a122 122 0 0 0 143-143z m208 153a75 75 0 0 0-2-8 156 156 0 0 0-7-23 167 167 0 0 0-113-100c0 8 0 15-2 22s0 12 0 17-5 16-8 24-3 10-5 15a175 175 0 0 1-12 23c0 3-4 8-6 11a221 221 0 0 1-25 31l-9 7a230 230 0 0 1-22 18 121 121 0 0 1-14 8 167 167 0 0 1-21 11 97 97 0 0 1-17 5 130 130 0 0 1-21 7c-6 0-12 0-19 2l-25 3a167 167 0 0 0 100 113 136 136 0 0 0 22 7l8 2a156 156 0 0 0 31 3 167 167 0 0 0 167-167 160 160 0 0 0-3-31z m83 6v25a250 250 0 0 1-250 250h-25a208 208 0 1 0 275-275z" horiz-adv-x="1000" />

<glyph glyph-name="circle" unicode="&#xe8b4;" d="M500 767a417 417 0 1 1 417-417 417 417 0 0 1-417 417z m0-750a333 333 0 1 0 333 333 333 333 0 0 0-333-333z" horiz-adv-x="1000" />

<glyph glyph-name="circuit" unicode="&#xe8b5;" d="M417 308a42 42 0 1 1 41-41 42 42 0 0 1-41 41z m0 167a42 42 0 1 1 41-42 42 42 0 0 1-41 42z m166 0a42 42 0 1 1 42-42 42 42 0 0 1-42 42z m292-167a42 42 0 0 1 0 84h-83v83h83a42 42 0 0 1 0 83h-91a125 125 0 0 1-76 76v91a42 42 0 0 1-83 0v-83h-83v83a42 42 0 0 1-84 0v-83h-83v83a42 42 0 0 1-83 0v-91a125 125 0 0 1-76-76h-91a42 42 0 0 1 0-83h83v-83h-83a42 42 0 0 1 0-84h83v-83h-83a42 42 0 0 1 0-83h91a125 125 0 0 1 76-76v-91a42 42 0 0 1 83 0v83h83v-83a42 42 0 0 1 84 0v83h83v-83a42 42 0 0 1 83 0v91a125 125 0 0 1 76 76h91a42 42 0 0 1 0 83h-83v83z m-167-125a42 42 0 0 0-41-41h-334a42 42 0 0 0-41 41v334a42 42 0 0 0 41 41h334a42 42 0 0 0 41-41z m-125 125a42 42 0 1 1 42-41 42 42 0 0 1-42 41z" horiz-adv-x="1000" />

<glyph glyph-name="clapper-board" unicode="&#xe8b6;" d="M792 767h-584a125 125 0 0 1-125-125v-584a125 125 0 0 1 125-125h584a125 125 0 0 1 125 125v584a125 125 0 0 1-125 125z m-122-84l-166-166h-174l166 166z m-503-41a42 42 0 0 0 41 41h171l-167-166h-45z m666-584a42 42 0 0 0-41-41h-584a42 42 0 0 0-41 41v375h666z m0 459h-212l167 166h4a42 42 0 0 0 41-41z" horiz-adv-x="1000" />

<glyph glyph-name="clipboard-alt" unicode="&#xe8b7;" d="M625 267h-250a42 42 0 0 1 0-84h250a42 42 0 0 1 0 84z m0 166h-167a42 42 0 0 1 0-83h167a42 42 0 0 1 0 83z m83 250h-49a125 125 0 0 1-117 84h-84a125 125 0 0 1-117-84h-49a125 125 0 0 1-125-125v-500a125 125 0 0 1 125-125h416a125 125 0 0 1 125 125v500a125 125 0 0 1-125 125z m-291-41a42 42 0 0 0 41 41h84a42 42 0 0 0 41-41v-42h-166z m333-584a42 42 0 0 0-42-41h-416a42 42 0 0 0-42 41v500a42 42 0 0 0 42 42h41v-42a42 42 0 0 1 42-41h250a42 42 0 0 1 42 41v42h41a42 42 0 0 0 42-42z" horiz-adv-x="1000" />

<glyph glyph-name="clipboard-blank" unicode="&#xe8b8;" d="M708 683h-41a83 83 0 0 1-84 84h-166a83 83 0 0 1-84-84h-41a125 125 0 0 1-125-125v-500a125 125 0 0 1 125-125h416a125 125 0 0 1 125 125v500a125 125 0 0 1-125 125z m-291 0h166v-83h-166v83z m333-625a42 42 0 0 0-42-41h-416a42 42 0 0 0-42 41v500a42 42 0 0 0 42 42h41a83 83 0 0 1 84-83h166a83 83 0 0 1 84 83h41a42 42 0 0 0 42-42z" horiz-adv-x="1000" />

<glyph glyph-name="clipboard-notes" unicode="&#xe8b9;" d="M542 267h-167a42 42 0 0 1 0-84h167a42 42 0 0 1 0 84z m166 416h-49a125 125 0 0 1-117 84h-84a125 125 0 0 1-117-84h-49a125 125 0 0 1-125-125v-500a125 125 0 0 1 125-125h416a125 125 0 0 1 125 125v500a125 125 0 0 1-125 125z m-291-41a42 42 0 0 0 41 41h84a42 42 0 0 0 41-41v-42h-166z m333-584a42 42 0 0 0-42-41h-416a42 42 0 0 0-42 41v500a42 42 0 0 0 42 42h41v-42a42 42 0 0 1 42-41h250a42 42 0 0 1 42 41v42h41a42 42 0 0 0 42-42z m-125 375h-250a42 42 0 0 1 0-83h250a42 42 0 0 1 0 83z" horiz-adv-x="1000" />

<glyph glyph-name="clipboard" unicode="&#xe8ba;" d="M708 683h-49a125 125 0 0 1-117 84h-84a125 125 0 0 1-117-84h-49a125 125 0 0 1-125-125v-500a125 125 0 0 1 125-125h416a125 125 0 0 1 125 125v500a125 125 0 0 1-125 125z m-291-41a42 42 0 0 0 41 41h84a42 42 0 0 0 41-41v-42h-166z m333-584a42 42 0 0 0-42-41h-416a42 42 0 0 0-42 41v500a42 42 0 0 0 42 42h41v-42a42 42 0 0 1 42-41h250a42 42 0 0 1 42 41v42h41a42 42 0 0 0 42-42z" horiz-adv-x="1000" />

<glyph glyph-name="clock-eight" unicode="&#xe8bb;" d="M458 767a417 417 0 1 1 417-417 417 417 0 0 1-417 417z m0-750a333 333 0 1 0 334 333 333 333 0 0 0-334-333z m0 583a42 42 0 0 1-41-42v-184l-88-50a42 42 0 0 1 21-78 42 42 0 0 1 21 5l108 63 4 3 7 6a36 36 0 0 1 4 7 37 37 0 0 1 3 7 27 27 0 0 1 2 8l1 5v208a42 42 0 0 1-42 42z" horiz-adv-x="1000" />

<glyph glyph-name="clock-five" unicode="&#xe8bc;" d="M458 767a417 417 0 1 1 417-417 417 417 0 0 1-417 417z m0-750a333 333 0 1 0 334 333 333 333 0 0 0-334-333z m42 336v205a42 42 0 0 1-83 0v-213a42 42 0 0 1 4-24l63-108a42 42 0 0 1 72 41z" horiz-adv-x="1000" />

<glyph glyph-name="clock-nine" unicode="&#xe8bd;" d="M458 767a417 417 0 1 1 417-417 417 417 0 0 1-417 417z m0-750a333 333 0 1 0 334 333 333 333 0 0 0-334-333z m0 583a42 42 0 0 1-41-42v-166h-84a42 42 0 0 1 0-84h125a42 42 0 0 1 42 42v208a42 42 0 0 1-42 42z" horiz-adv-x="1000" />

<glyph glyph-name="clock-seven" unicode="&#xe8be;" d="M458 767a417 417 0 1 1 417-417 417 417 0 0 1-417 417z m0-750a333 333 0 1 0 334 333 333 333 0 0 0-334-333z m0 583a42 42 0 0 1-41-42v-205l-57-99a42 42 0 0 1 72-41l63 108a42 42 0 0 1 4 24l1 5v208a42 42 0 0 1-42 42z" horiz-adv-x="1000" />

<glyph glyph-name="clock-ten" unicode="&#xe8bf;" d="M458 767a417 417 0 1 1 417-417 417 417 0 0 1-417 417z m0-750a333 333 0 1 0 334 333 333 333 0 0 0-334-333z m0 583a42 42 0 0 1-41-42v-136l-46 27a42 42 0 0 1-42-73l108-62h7a42 42 0 0 1 14-6 42 42 0 0 1 15 3h3a38 38 0 0 1 12 8 65 65 0 0 1 6 8v3a53 53 0 0 1 2 7 59 59 0 0 1 0 8v213a42 42 0 0 1-38 42z" horiz-adv-x="1000" />

<glyph glyph-name="clock-three" unicode="&#xe8c0;" d="M625 392h-83v166a42 42 0 0 1-84 0v-208a42 42 0 0 1 42-42h125a42 42 0 0 1 0 84z m-125 375a417 417 0 1 1 417-417 417 417 0 0 1-417 417z m0-750a333 333 0 1 0 333 333 333 333 0 0 0-333-333z" horiz-adv-x="1000" />

<glyph glyph-name="clock-two" unicode="&#xe8c1;" d="M500 767a417 417 0 1 1 417-417 417 417 0 0 1-417 417z m0-750a333 333 0 1 0 333 333 333 333 0 0 0-333-333z m88 432l-46-27v136a42 42 0 0 1-84 0v-210a59 59 0 0 1 0-9 53 53 0 0 1 3-7v-3a65 65 0 0 1 7-8 38 38 0 0 1 11-8h4a42 42 0 0 1 17-5 42 42 0 0 1 14 3h7l108 63a42 42 0 0 1-41 72z" horiz-adv-x="1000" />

<glyph glyph-name="clock" unicode="&#xe8c2;" d="M458 767a417 417 0 1 1 417-417 417 417 0 0 1-417 417z m0-750a333 333 0 1 0 334 333 333 333 0 0 0-334-333z m130 307l-88 50v184a42 42 0 0 1-83 0v-213a27 27 0 0 1 2-8 37 37 0 0 1 3-7 36 36 0 0 1 4-7l7-5 4-4 108-63a42 42 0 0 1 21-5 42 42 0 0 1 21 78z" horiz-adv-x="1000" />

<glyph glyph-name="closed-captioning" unicode="&#xe8c3;" d="M468 303a42 42 0 0 1-57-15 42 42 0 0 0-66-8 39 39 0 0 0-12 28v84a42 42 0 0 0 79 20 42 42 0 0 1 57-14 42 42 0 0 1 14 57 128 128 0 0 1-19 25 125 125 0 0 1-89 37 125 125 0 0 1-125-125v-84a125 125 0 0 1 233-62 42 42 0 0 1-15 57z m250 0a42 42 0 0 1-57-15 42 42 0 0 0-66-8 39 39 0 0 0-12 28v84a42 42 0 0 0 79 20 42 42 0 0 1 57-14 42 42 0 0 1 14 57 128 128 0 0 1-19 25 125 125 0 0 1-89 37 125 125 0 0 1-125-125v-84a125 125 0 0 1 233-62 42 42 0 0 1-15 57z m-218 464a417 417 0 1 1 417-417 417 417 0 0 1-417 417z m0-750a333 333 0 1 0 333 333 333 333 0 0 0-333-333z" horiz-adv-x="1000" />

<glyph glyph-name="cloud-block" unicode="&#xe8c4;" d="M768 528a292 292 0 0 1-557-78 167 167 0 0 1-16-320 47 47 0 0 1 13-2 42 42 0 0 1 14 84 83 83 0 0 0-55 76 83 83 0 0 0 83 83 42 42 0 0 1 42 42 208 208 0 0 0 405 67 42 42 0 0 1 33-28 125 125 0 0 0 41-231 42 42 0 1 1 42-72 208 208 0 0 1 104 180 208 208 0 0 1-149 199z m-386-250a167 167 0 1 1 236 0 171 171 0 0 1-236 2z m35-115a83 83 0 0 0 83 83 87 87 0 0 0 21-3l-101-101a87 87 0 0 0-3 21z m142-59a83 83 0 0 0-80-21l101 100a87 87 0 0 0 3-21 83 83 0 0 0-24-58z" horiz-adv-x="1000" />

<glyph glyph-name="cloud-bookmark" unicode="&#xe8c5;" d="M625 392h-208a42 42 0 0 1-42-42v-333a42 42 0 0 1 65-35l81 54 79-52a42 42 0 0 1 25-9 42 42 0 0 1 18 4 42 42 0 0 1 24 38v333a42 42 0 0 1-42 42z m-42-297l-39 26a42 42 0 0 1-46 0l-40-26v213h125z m185 454a292 292 0 0 1-557-79 167 167 0 0 1 39-328 42 42 0 0 1 0 83 83 83 0 0 0 0 167 42 42 0 0 1 42 41 208 208 0 0 0 405 67 42 42 0 0 1 33-27 125 125 0 0 0 41-231 42 42 0 1 1 42-72 208 208 0 0 1 104 180 208 208 0 0 1-149 199z" horiz-adv-x="1000" />

<glyph glyph-name="cloud-check" unicode="&#xe8c6;" d="M595 259l-137-137-53 53a42 42 0 0 1-60 0 42 42 0 0 1 0-58l84-84a42 42 0 0 1 59 0l167 167a42 42 0 0 1 0 59 42 42 0 0 1-60 0z m173 244a292 292 0 0 1-557-79 167 167 0 0 1-16-319 42 42 0 1 1 27 78 83 83 0 0 0-55 80 83 83 0 0 0 83 83 42 42 0 0 1 42 42 208 208 0 0 0 405 66 42 42 0 0 1 33-27 125 125 0 0 0 10-244 42 42 0 0 1 10-83h10a208 208 0 0 1 8 401z" horiz-adv-x="1000" />

<glyph glyph-name="cloud-computing" unicode="&#xe8c7;" d="M875 17h-125a42 42 0 0 0-42 41v125a208 208 0 0 1 60 408 292 292 0 0 1-557-79 167 167 0 0 1 39-329h42v-125a42 42 0 0 0-42-41h-125a42 42 0 0 1 0-84h125a125 125 0 0 1 125 125v125h83v-208a42 42 0 0 1 84 0v208h83v-125a125 125 0 0 1 125-125h125a42 42 0 0 1 0 84z m-625 250a83 83 0 0 0 0 166 42 42 0 0 1 42 42 208 208 0 0 0 405 67 42 42 0 0 1 33-28 125 125 0 0 0 103-122 125 125 0 0 0-125-125z" horiz-adv-x="1000" />

<glyph glyph-name="cloud-data-connection" unicode="&#xe8c8;" d="M875 79h-257a125 125 0 0 1-76 76v133h132a180 180 0 0 1 54 354 250 250 0 0 1-476-68 146 146 0 0 1 40-286h166v-133a125 125 0 0 1-76-76h-257a42 42 0 0 1 0-83h258a125 125 0 0 1 235 0h257a42 42 0 0 1 0 83z m-583 292a63 63 0 0 0 0 125 42 42 0 0 1 41 42 167 167 0 0 0 325 53 42 42 0 0 1 32-28 96 96 0 0 0 81-95 97 97 0 0 0-97-97z m208-375a42 42 0 1 0 42 42 42 42 0 0 0-42-42z" horiz-adv-x="1000" />

<glyph glyph-name="cloud-database-tree" unicode="&#xe8c9;" d="M938 246a83 83 0 0 1-84 83h-250a83 83 0 0 1-83-83h-125v125h97a153 153 0 0 1 49 297 208 208 0 0 1-393-53 125 125 0 0 1 39-244h125v-333a42 42 0 0 1 41-42h167a83 83 0 0 1 83-84h250a83 83 0 0 1 84 84v83a83 83 0 0 1-12 42 83 83 0 0 1 12 42z m-750 208a42 42 0 0 0 0 84 42 42 0 0 1 41 41 125 125 0 0 0 244 42 42 42 0 0 1 32-28 69 69 0 0 0 58-69 70 70 0 0 0-70-70z m333-375h-125v84h125a83 83 0 0 1 11-42 83 83 0 0 1-11-42z m83-83v83h250v-83z m0 167v83h250v-83z" horiz-adv-x="1000" />

<glyph glyph-name="cloud-download" unicode="&#xe8ca;" d="M595 130l-53-55v233a42 42 0 0 1-84 0v-233l-53 55a42 42 0 0 1-60-60l125-125a42 42 0 0 1 14-8 39 39 0 0 1 32 0 42 42 0 0 1 14 8l125 125a42 42 0 0 1-60 60z m173 461a292 292 0 0 1-557-79 167 167 0 0 1 39-329 42 42 0 0 1 0 84 83 83 0 0 0 0 166 42 42 0 0 1 42 42 208 208 0 0 0 405 67 42 42 0 0 1 33-28 125 125 0 0 0 10-243 42 42 0 1 1 20-81 208 208 0 0 1 8 401z" horiz-adv-x="1000" />

<glyph glyph-name="cloud-drizzle" unicode="&#xe8cb;" d="M500 58a42 42 0 0 1-42-41v-42a42 42 0 0 1 84 0v42a42 42 0 0 1-42 41z m-167 334a42 42 0 0 1-41-42v-42a42 42 0 0 1 83 0v42a42 42 0 0 1-42 42z m0-209a42 42 0 0 1-41-41v-42a42 42 0 0 1 83 0v42a42 42 0 0 1-42 41z m167 84a42 42 0 0 1-42-42v-42a42 42 0 0 1 84 0v42a42 42 0 0 1-42 42z m268 324a292 292 0 0 1-557-79 167 167 0 0 1-128-162 167 167 0 0 1 56-125 42 42 0 1 1 55 63 83 83 0 0 0-27 62 83 83 0 0 0 83 83 42 42 0 0 1 42 42 208 208 0 0 0 405 67 42 42 0 0 1 33-28 125 125 0 0 0 103-122 121 121 0 0 0-31-84 42 42 0 0 1 62-55 208 208 0 0 1-97 336z m-101-199a42 42 0 0 1-42-42v-42a42 42 0 0 1 83 0v42a42 42 0 0 1-41 42z m0-209a42 42 0 0 1-42-41v-42a42 42 0 0 1 83 0v42a42 42 0 0 1-41 41z m-167 292a42 42 0 0 1-42-42v-41a42 42 0 0 1 84 0v41a42 42 0 0 1-42 42z" horiz-adv-x="1000" />

<glyph glyph-name="cloud-exclamation" unicode="&#xe8cc;" d="M530 67a48 48 0 0 1-14 9 42 42 0 0 1-46-9 44 44 0 0 1-12-29 42 42 0 0 1 12-30 48 48 0 0 1 14-9 42 42 0 0 1 54 54 42 42 0 0 1-8 14z m-30 262a42 42 0 0 1-42-41v-125a42 42 0 0 1 84 0v125a42 42 0 0 1-42 41z m268 200a292 292 0 0 1-557-79 167 167 0 0 1 39-329h83a42 42 0 0 1 0 83h-83a83 83 0 0 0 0 167 42 42 0 0 1 42 42 208 208 0 0 0 405 67 42 42 0 0 1 33-28 125 125 0 0 0-22-248h-41a42 42 0 0 1 0-83h41a208 208 0 0 1 59 408z" horiz-adv-x="1000" />

<glyph glyph-name="cloud-hail" unicode="&#xe8cd;" d="M500 142a42 42 0 1 1 42-42 42 42 0 0 1-42 42z m-167 250a42 42 0 1 1 42-42 42 42 0 0 1-42 42z m167-84a42 42 0 1 1 42-41 42 42 0 0 1-42 41z m-167-250a42 42 0 1 1 42-41 42 42 0 0 1-42 41z m0 167a42 42 0 1 1 42-42 42 42 0 0 1-42 42z m334 0a42 42 0 1 1 41-42 42 42 0 0 1-41 42z m-167 250a42 42 0 1 1 42-42 42 42 0 0 1-42 42z m167-83a42 42 0 1 1 41-42 42 42 0 0 1-41 42z m101 199a292 292 0 0 1-557-79 167 167 0 0 1-128-162 167 167 0 0 1 56-125 42 42 0 1 1 55 63 83 83 0 0 0-27 62 83 83 0 0 0 83 83 42 42 0 0 1 42 42 208 208 0 0 0 405 67 42 42 0 0 1 33-28 125 125 0 0 0 103-122 121 121 0 0 0-31-84 42 42 0 0 1 62-55 208 208 0 0 1-97 336z m-101-533a42 42 0 1 1 41-41 42 42 0 0 1-41 41z" horiz-adv-x="1000" />

<glyph glyph-name="cloud-heart" unicode="&#xe8ce;" d="M768 528a292 292 0 0 1-557-78 167 167 0 0 1-16-320 47 47 0 0 1 13-2 42 42 0 0 1 14 84 83 83 0 0 0-55 76 83 83 0 0 0 83 83 42 42 0 0 1 42 42 208 208 0 0 0 405 67 42 42 0 0 1 33-28 125 125 0 0 0 41-231 42 42 0 1 1 42-72 208 208 0 0 1 104 180 208 208 0 0 1-149 199z m-268-213a122 122 0 0 1-143-22 122 122 0 0 1 0-172l113-113a42 42 0 0 1 60 0l113 113a122 122 0 0 1 0 172 122 122 0 0 1-143 22z m83-135l-83-83-83 83a37 37 0 0 0-12 28 37 37 0 0 0 12 27 38 38 0 0 0 54 0 42 42 0 0 1 59 0 39 39 0 0 0 54 0 37 37 0 0 0 11-27 37 37 0 0 0-12-28z" horiz-adv-x="1000" />

<glyph glyph-name="cloud-info" unicode="&#xe8cf;" d="M470 338a42 42 0 0 1 30-71h8a25 25 0 0 1 8 2 23 23 0 0 1 7 4l6 5a42 42 0 0 1 0 59 42 42 0 0 1-59 1z m30-113a42 42 0 0 1-42-42v-125a42 42 0 0 1 84 0v125a42 42 0 0 1-42 42z m268 283a292 292 0 0 1-557-79 167 167 0 0 1 39-329h83a42 42 0 0 1 0 83h-83a83 83 0 0 0 0 167 42 42 0 0 1 42 42 208 208 0 0 0 405 67 42 42 0 0 1 33-28 125 125 0 0 0 103-123 125 125 0 0 0-125-125h-41a42 42 0 0 1 0-83h41a208 208 0 0 1 59 407z" horiz-adv-x="1000" />

<glyph glyph-name="cloud-lock" unicode="&#xe8d0;" d="M768 570a292 292 0 0 1-557-79 167 167 0 0 1-16-319 47 47 0 0 1 13-2 42 42 0 0 1 14 83 83 83 0 0 0-55 76 83 83 0 0 0 83 84 42 42 0 0 1 42 41 208 208 0 0 0 405 67 42 42 0 0 1 33-28 125 125 0 0 0 41-230 42 42 0 1 1 42-73 208 208 0 0 1 104 181 208 208 0 0 1-149 199z m-143-375v51a125 125 0 0 1-250 0v-49a125 125 0 0 1 42-243h166a125 125 0 0 1 42 243z m-167 51a42 42 0 0 0 84 0v-42h-84z m125-208h-166a42 42 0 0 0 0 83h166a42 42 0 0 0 0-83z" horiz-adv-x="1000" />

<glyph glyph-name="cloud-meatball" unicode="&#xe8d1;" d="M604 187h-32l16 28a42 42 0 0 1-72 41l-16-28-16 28a42 42 0 0 1-72-41l16-28h-32a42 42 0 0 1 0-84h32l-16-27a42 42 0 0 1 72-42l16 28 16-28a42 42 0 0 1 72 42l-16 27h32a42 42 0 0 1 0 84z m164 324a292 292 0 0 1-557-78 167 167 0 0 1-128-163 167 167 0 0 1 140-164h6a42 42 0 0 1 7 84 83 83 0 0 0-69 83 83 83 0 0 0 83 83 42 42 0 0 1 42 42 208 208 0 0 0 405 67 42 42 0 0 1 33-27 125 125 0 0 0 25-239 42 42 0 1 1 31-77 208 208 0 0 1-18 392z" horiz-adv-x="1000" />

</font>
</defs>
</svg>
